VERSION	0.00.00	1.03.00
FES_MODE	0
BPM_DEF	166.000	166.000	166.000	166.000
MET_DEF	4	4
RESOLUTION	384
CLK_DEF	384
COMPATIBLE_CODE	MA2

BPM	0	0	166.000

HLD	1	0	0	288
HLD	3	0	0	288
HLD	3	0	7	288
TAP	5	0	0
TAP	5	192	0
TAP	6	0	1
TAP	6	192	1
TAP	7	0	2
TAP	7	192	2
TAP	8	0	3
TAP	8	0	4
TAP	9	0	4
TAP	9	96	4
TAP	9	192	4
TAP	10	0	5
TAP	10	96	4
TAP	10	192	5
TAP	11	0	3
TAP	11	96	3
TAP	11	192	3
TAP	12	0	2
TAP	12	96	3
TAP	12	192	2
TAP	13	0	1
TAP	13	96	1
TAP	13	192	1
TAP	14	0	0
TAP	14	96	7
TAP	14	192	0
TAP	15	0	6
TAP	15	96	6
TAP	15	192	6
TAP	16	0	7
TAP	16	96	0
TAP	16	192	7
TAP	17	0	0
TAP	17	192	0
TAP	18	0	1
TAP	18	192	1
TAP	19	0	2
TAP	19	96	3
TAP	19	192	2
TAP	20	0	4
TAP	20	96	3
TAP	20	192	4
TAP	21	0	4
TAP	21	192	4
TAP	22	0	5
TAP	22	192	5
TAP	23	0	6
TAP	23	96	7
TAP	23	192	6
TAP	24	0	0
TAP	24	96	7
TAP	24	192	0
STR	25	0	0
SI_	25	0	0	96	288	5
STR	27	0	7
SI_	27	0	7	96	288	2
TAP	29	0	0
TAP	29	192	0
TAP	30	0	1
TAP	30	192	1
TAP	31	0	2
TAP	31	192	2
TAP	32	0	3
TAP	32	96	4
BRK	32	192	3
TAP	33	0	4
TAP	33	96	4
TAP	33	192	4
TAP	34	0	5
TAP	34	96	5
TAP	34	192	4
TAP	34	192	5
TAP	35	0	6
TAP	35	96	6
TAP	35	192	6
TAP	36	0	7
TAP	36	96	0
TAP	36	192	7
TAP	37	0	0
TAP	37	96	0
TAP	37	192	0
TAP	38	0	1
TAP	38	96	1
TAP	38	192	0
TAP	38	192	1
TAP	39	0	2
TAP	39	96	2
TAP	39	192	2
HLD	40	0	3	192
HLD	40	0	4	192
TAP	41	0	3
TAP	41	96	3
TAP	41	192	3
TAP	42	0	2
TAP	42	96	2
TAP	42	192	2
TAP	42	192	3
TAP	43	0	1
TAP	43	96	1
TAP	43	192	1
TAP	44	0	0
TAP	44	96	7
TAP	44	192	0
TAP	45	0	7
TAP	45	96	7
TAP	45	192	7
TAP	46	0	6
TAP	46	96	6
TAP	46	192	6
TAP	46	192	7
TAP	47	0	5
TAP	47	96	5
TAP	47	192	5
HLD	48	0	3	192
HLD	48	0	4	192
TAP	49	0	2
TAP	49	96	3
TAP	49	192	2
TAP	50	0	5
TAP	50	96	4
TAP	50	192	5
TAP	51	0	2
TAP	51	96	4
TAP	51	192	2
TAP	52	0	5
TAP	52	96	3
TAP	52	192	5
TAP	53	0	1
TAP	53	96	0
TAP	53	192	1
TAP	54	0	6
TAP	54	96	7
TAP	54	192	6
TAP	55	0	1
TAP	55	96	7
TAP	55	192	1
TAP	56	0	6
TAP	56	96	0
TAP	56	192	6
STR	57	0	0
SI_	57	0	0	96	288	3
STR	59	0	7
SI_	59	0	7	96	288	4
TAP	61	0	2
TAP	61	96	3
TAP	61	192	2
TAP	62	0	5
TAP	62	96	4
TAP	62	192	5
TAP	63	0	3
TAP	63	96	4
TAP	63	192	3
STR	64	0	3
SI_	64	0	3	96	288	0
STR	64	0	4
SI_	64	0	4	96	288	7
TAP	66	0	0
TAP	66	96	0
TAP	66	192	0
TAP	66	288	0
TAP	67	0	1
TAP	67	96	1
TAP	67	192	1
TAP	67	192	7
TAP	68	0	2
TAP	68	96	2
TAP	68	192	2
TAP	68	288	2
TAP	69	0	3
TAP	69	96	4
TAP	69	192	3
TAP	70	0	4
TAP	70	96	4
TAP	70	192	4
TAP	70	288	4
TAP	71	0	5
TAP	71	96	5
TAP	71	192	3
TAP	71	192	5
TAP	72	0	6
TAP	72	96	6
TAP	72	192	6
TAP	72	288	6
HLD	73	0	0	192
HLD	73	0	7	192
TAP	74	0	7
TAP	74	96	7
TAP	74	192	7
TAP	74	288	7
TAP	75	0	6
TAP	75	96	6
TAP	75	192	0
TAP	75	192	6
TAP	76	0	5
TAP	76	96	5
TAP	76	192	5
TAP	76	288	5
TAP	77	0	4
TAP	77	96	3
TAP	77	192	4
TAP	78	0	3
TAP	78	96	3
TAP	78	192	3
TAP	78	288	3
TAP	79	0	2
TAP	79	96	2
TAP	79	192	2
TAP	79	192	4
TAP	80	0	1
TAP	80	96	1
TAP	80	192	1
TAP	80	288	1
HLD	81	0	0	192
HLD	81	0	7	192
STR	82	0	0
SI_	82	0	0	96	288	3
STR	82	0	7
SI_	82	0	7	96	288	4
TAP	84	0	1
TAP	84	96	0
TAP	84	192	1
TAP	85	0	6
TAP	85	96	7
TAP	85	192	6
TAP	86	0	0
TAP	86	96	0
TAP	86	192	1
TAP	86	288	1
TAP	87	0	2
TAP	87	96	2
TAP	87	192	3
TAP	87	288	3
TAP	88	0	4
TAP	88	96	4
TAP	88	192	5
TAP	88	288	5
TAP	89	0	6
TAP	89	96	6
TAP	89	192	7
BRK	89	288	7

T_REC_TAP	214
T_REC_BRK	2
T_REC_XTP	0
T_REC_HLD	11
T_REC_XHO	0
T_REC_STR	8
T_REC_BST	0
T_REC_XST	0
T_REC_TTP	0
T_REC_THO	0
T_REC_SLD	8
T_REC_ALL	243
T_NUM_TAP	222
T_NUM_BRK	2
T_NUM_HLD	11
T_NUM_SLD	8
T_NUM_ALL	243
T_JUDGE_TAP	224
T_JUDGE_HLD	50
T_JUDGE_SLD	8
T_JUDGE_ALL	282
TTM_EACHPAIRS	16
TTM_SCR_TAP	111000
TTM_SCR_BRK	5200
TTM_SCR_HLD	11000
TTM_SCR_SLD	12000
TTM_SCR_ALL	139200
TTM_SCR_S	134850
TTM_SCR_SS	139000
TTM_RAT_ACV	10014

