VERSION	0.00.00	1.03.00
FES_MODE	0
BPM_DEF	150.000	150.000	150.000	150.000
MET_DEF	4	4
RESOLUTION	384
CLK_DEF	672
COMPATIBLE_CODE	MA2

BPM	0	0	150.000
MET	0	0	4	7
MET	1	288	4	4
MET	2	288	4	3
MET	3	192	4	4
MET	4	192	4	3
MET	5	96	4	4
MET	6	96	4	3
MET	7	0	4	4
MET	8	0	4	3
MET	8	288	4	4
MET	9	288	4	3
MET	10	192	4	4
MET	10	336	4	3
MET	12	96	4	4
MET	13	96	4	3
MET	14	0	4	4
MET	15	0	4	3
MET	15	288	4	4
MET	16	288	4	3
MET	17	192	4	4
MET	18	192	4	3
MET	19	96	4	4
MET	20	96	4	3
MET	21	0	4	3
MET	21	288	4	7
MET	23	192	4	7
MET	35	288	4	5
MET	45	288	4	3
MET	51	0	8	7
MET	62	144	8	5
MET	62	264	8	7
MET	64	168	4	7

TAP	1	288	0
TAP	1	300	1
TAP	1	312	2
TAP	1	324	3
TAP	1	336	4
TAP	1	348	5
TAP	1	360	6
TAP	1	372	7
TAP	2	0	0
TAP	2	12	1
TAP	2	24	2
TAP	2	36	3
TAP	2	48	4
TAP	2	60	5
TAP	2	72	6
TAP	2	84	7
HLD	2	96	0	288
TAP	2	128	1
TAP	2	160	2
TAP	2	192	3
TAP	2	224	4
TAP	2	256	5
STR	2	288	6
SCR	2	288	6	96	144	3
TAP	3	156	0
TAP	3	156	4
TAP	3	168	1
TAP	3	168	5
TAP	3	180	2
TAP	3	180	6
TAP	3	192	3
HLD	3	192	7	192
HLD	4	0	6	192
HLD	4	192	5	192
HLD	5	0	4	96
HLD	5	96	0	192
HLD	5	288	1	192
HLD	6	96	2	192
STR	6	288	3
SCL	6	288	3	96	384	4
SUR	6	288	3	96	384	4
BRK	7	0	3
TAP	8	288	0
TAP	8	288	5
TAP	8	336	3
TAP	8	336	4
TAP	9	48	2
TAP	9	48	7
TAP	9	144	3
TAP	9	144	4
TAP	9	240	5
TAP	9	240	7
TAP	9	336	3
TAP	9	336	4
TAP	10	48	0
TAP	10	48	7
TAP	10	96	2
STR	10	96	5
SI_	10	96	5	96	48	2
TAP	10	192	0
HLD	10	240	0	96
HLD	10	336	2	96
HLD	11	48	4	96
HLD	11	144	6	96
HLD	11	240	0	96
TAP	11	336	2
STR	12	0	2
SI_	12	0	2	96	48	5
TAP	12	96	7
HLD	12	144	7	96
HLD	12	240	5	96
HLD	12	336	3	96
HLD	13	48	1	96
HLD	13	144	7	96
TAP	13	240	5
TAP	13	264	5
TAP	13	288	0
TAP	13	300	1
TAP	13	312	2
TAP	13	324	3
TAP	13	336	4
TAP	13	348	5
TAP	13	360	6
TAP	13	372	7
BST	14	0	0
SV_	14	0	0	96	48	2
BST	14	0	4
SV_	14	0	4	96	48	6
TAP	14	240	0
TAP	14	264	1
TAP	14	336	5
TAP	14	360	4
TAP	15	48	6
TAP	15	96	7
TAP	15	144	0
STR	15	192	1
SUR	15	192	1	96	96	3
TAP	15	240	7
TAP	15	264	6
TAP	15	288	5
TAP	16	48	7
TAP	16	144	6
TAP	16	240	5
TAP	16	336	6
TAP	17	48	5
STR	17	96	6
SUL	17	96	6	96	96	4
TAP	17	144	0
TAP	17	168	1
TAP	17	192	2
TAP	18	48	2
TAP	18	96	3
TAP	18	144	4
TAP	18	336	3
STR	19	0	4
SXL	19	0	4	96	96	1
TAP	19	96	0
TAP	19	108	1
TAP	19	120	2
TAP	19	240	3
TAP	19	336	2
TAP	20	48	1
TAP	20	144	0
TAP	20	144	4
TAP	20	192	1
TAP	20	192	5
TAP	20	240	2
TAP	20	240	6
TAP	20	288	3
TAP	20	288	7
TAP	20	300	0
TAP	20	312	1
TAP	20	324	2
TAP	20	336	3
TAP	20	348	4
TAP	20	360	5
TAP	20	372	6
TAP	21	0	2
HLD	21	0	7	192
TAP	21	96	1
STR	21	192	0
SI_	21	192	0	96	24	2
STR	21	288	0
SI_	21	288	0	96	48	4
TAP	21	288	5
TAP	21	336	5
TAP	22	0	0
TAP	22	0	6
TAP	22	24	6
TAP	22	96	0
TAP	22	96	7
TAP	22	120	0
TAP	22	120	7
TAP	22	168	1
TAP	22	168	3
TAP	22	216	4
TAP	22	216	6
STR	22	264	1
SCR	22	264	1	96	72	4
TAP	22	264	3
TAP	22	336	5
TAP	22	360	5
TAP	23	24	6
TAP	23	48	6
TAP	23	96	0
STR	23	96	7
SI_	23	96	7	96	24	5
TAP	23	192	2
STR	23	192	7
SI_	23	192	7	96	48	3
TAP	23	240	2
TAP	23	288	1
TAP	23	288	7
TAP	23	312	1
TAP	24	0	0
TAP	24	0	7
TAP	24	24	0
TAP	24	24	7
TAP	24	72	4
TAP	24	72	6
TAP	24	120	1
TAP	24	120	3
TAP	24	168	4
STR	24	168	6
SCL	24	168	6	96	72	3
TAP	24	240	2
TAP	24	264	2
TAP	24	312	1
TAP	24	336	1
STR	25	0	0
SI_	25	0	0	96	24	2
TAP	25	0	7
STR	25	96	0
SI_	25	96	0	96	48	4
TAP	25	96	5
TAP	25	144	5
TAP	25	192	0
TAP	25	192	6
TAP	25	216	6
TAP	25	288	0
TAP	25	288	7
TAP	25	312	0
TAP	25	312	7
TAP	25	360	1
TAP	25	360	3
TAP	26	24	4
TAP	26	24	6
STR	26	72	1
SCR	26	72	1	96	72	4
TAP	26	72	3
TAP	26	144	5
TAP	26	168	5
TAP	26	216	6
TAP	26	240	6
TAP	26	288	0
STR	26	288	7
SI_	26	288	7	96	24	5
TAP	27	0	2
STR	27	0	7
SI_	27	0	7	96	48	3
TAP	27	48	2
TAP	27	96	1
TAP	27	96	7
TAP	27	120	1
TAP	27	192	0
TAP	27	192	7
TAP	27	216	0
TAP	27	216	7
TAP	27	264	4
TAP	27	264	6
TAP	27	312	1
TAP	27	312	3
TAP	27	360	0
TAP	27	360	7
TAP	28	48	5
TAP	28	96	5
TAP	28	120	2
TAP	28	168	2
TAP	28	192	3
TAP	28	192	4
TAP	28	240	3
TAP	28	240	4
TAP	28	288	2
TAP	28	312	6
TAP	28	336	2
TAP	28	360	6
TAP	29	0	1
TAP	29	24	5
TAP	29	48	1
TAP	29	72	5
TAP	29	96	0
TAP	29	120	4
TAP	29	144	0
TAP	29	168	3
TAP	29	168	7
TAP	29	216	1
TAP	29	216	5
TAP	29	264	3
TAP	29	264	7
TAP	29	288	2
TAP	29	312	6
TAP	29	336	1
TAP	29	360	5
TAP	30	0	0
TAP	30	24	4
TAP	30	48	7
TAP	30	72	7
TAP	30	96	5
TAP	30	120	5
TAP	30	144	3
TAP	30	168	3
TAP	30	192	5
TAP	30	216	1
TAP	30	240	5
TAP	30	264	1
TAP	30	288	6
TAP	30	312	2
TAP	30	336	6
TAP	30	360	2
TAP	31	0	7
TAP	31	24	3
TAP	31	48	7
TAP	31	72	0
TAP	31	72	4
TAP	31	120	2
TAP	31	120	6
TAP	31	168	0
TAP	31	168	4
TAP	31	192	5
TAP	31	216	1
TAP	31	240	6
TAP	31	264	2
TAP	31	288	7
TAP	31	312	3
TAP	31	336	6
TAP	31	352	5
TAP	31	368	4
TAP	32	0	1
TAP	32	16	2
TAP	32	32	3
TAP	32	48	6
TAP	32	64	5
TAP	32	80	4
TAP	32	96	0
TAP	32	120	7
TAP	32	144	1
TAP	32	168	6
TAP	32	192	2
TAP	32	216	5
TAP	32	240	3
TAP	32	264	4
TAP	32	288	3
TAP	32	312	5
TAP	32	336	3
TAP	32	360	2
TAP	32	360	4
TAP	33	24	1
TAP	33	24	4
TAP	33	72	0
TAP	33	72	4
TAP	33	96	1
TAP	33	120	6
TAP	33	144	2
TAP	33	168	5
TAP	33	192	3
TAP	33	216	4
TAP	33	240	1
TAP	33	264	1
TAP	33	288	3
TAP	33	312	3
TAP	33	336	7
TAP	33	360	7
TAP	34	48	1
TAP	34	48	6
TAP	34	96	2
TAP	34	96	5
TAP	34	120	2
TAP	34	120	5
TAP	34	168	0
TAP	34	168	7
TAP	34	216	6
TAP	34	240	5
TAP	34	264	4
TAP	34	288	3
TAP	34	312	2
TAP	34	336	1
TAP	34	360	0
STR	35	0	3
SUL	35	0	3	96	48	6
STR	35	0	7
SUL	35	0	7	96	48	2
TAP	35	192	3
TAP	35	192	7
TAP	35	216	0
TAP	35	216	4
TAP	35	240	1
TAP	35	240	5
TAP	35	264	2
TAP	35	264	6
TAP	35	288	3
BST	35	288	7
SI_	35	288	7	96	24	3
BST	35	360	1
SI_	35	360	1	96	24	5
TAP	35	360	7
TAP	36	48	1
BST	36	48	6
SI_	36	48	6	96	24	2
BST	36	120	4
SLL	36	120	4	96	48	7
TAP	36	120	6
TAP	36	192	7
TAP	36	240	5
TAP	36	288	4
TAP	36	312	4
TAP	36	336	4
TAP	36	360	4
BST	37	0	0
SI_	37	0	0	96	24	4
TAP	37	0	4
TAP	37	72	0
BST	37	72	6
SI_	37	72	6	96	24	2
BST	37	144	1
SI_	37	144	1	96	24	5
TAP	37	144	6
TAP	37	216	1
BST	37	216	3
SLR	37	216	3	96	48	0
STR	37	288	0
SLR	37	288	0	96	64	6
TAP	37	336	2
TAP	38	96	3
BST	38	96	7
SI_	38	96	7	96	24	3
BST	38	168	1
SI_	38	168	1	96	24	5
TAP	38	168	7
TAP	38	240	1
BST	38	240	6
SI_	38	240	6	96	24	3
TAP	38	288	7
TAP	38	336	0
TAP	39	0	1
TAP	39	48	2
TAP	39	96	3
TAP	39	96	4
TAP	39	144	3
TAP	39	144	4
BST	39	192	0
SI_	39	192	0	96	24	4
TAP	39	192	4
TAP	39	264	0
BST	39	264	6
SI_	39	264	6	96	24	2
BST	39	336	1
SI_	39	336	1	96	24	5
TAP	39	336	6
TAP	40	24	1
BST	40	24	3
SLR	40	24	3	96	48	0
TAP	40	96	0
TAP	40	144	2
TAP	40	192	3
TAP	40	192	7
TAP	40	216	2
TAP	40	216	6
TAP	40	240	1
TAP	40	240	5
TAP	40	264	0
TAP	40	264	4
BST	40	288	3
SCR	40	288	3	96	24	6
BST	40	288	7
SCR	40	288	7	96	24	2
BST	40	360	3
SI_	40	360	3	96	24	0
BST	40	360	7
SI_	40	360	7	96	24	4
TAP	41	48	3
BST	41	48	7
SI_	41	48	7	96	24	2
BST	41	120	5
SLL	41	120	5	96	72	7
TAP	41	192	0
TAP	41	240	1
TAP	41	288	2
TAP	41	312	2
TAP	41	336	2
HLD	42	0	0	72
BST	42	0	7
SCL	42	0	7	96	48	4
TAP	42	96	0
BST	42	96	7
SI_	42	96	7	96	48	2
TAP	42	144	0
HLD	42	192	1	72
BST	42	192	7
SI_	42	192	7	96	48	4
STR	42	288	1
SSR	42	288	1	96	72	5
TAP	42	288	7
TAP	42	336	1
TAP	43	96	6
BRK	43	144	0
BRK	43	144	7
BRK	43	160	1
BRK	43	160	6
BRK	43	176	2
BRK	43	176	5
BRK	43	192	3
BRK	43	192	4
TAP	43	240	0
TAP	43	240	7
TAP	43	288	1
TAP	43	288	5
TAP	43	320	1
TAP	43	320	5
TAP	43	352	1
TAP	43	352	5
STR	44	0	2
SLL	44	0	2	96	96	4
TAP	44	0	6
TAP	44	48	3
TAP	44	48	7
TAP	44	96	6
TAP	44	144	5
STR	44	192	7
SI_	44	192	7	96	72	3
STR	44	264	3
SF_	44	264	3	96	168	7
STR	45	192	0
SUL	45	192	0	96	48	3
STR	45	192	7
SUR	45	192	7	96	48	4
BRK	45	288	0
BRK	45	288	7
TAP	46	0	1
HLD	46	48	1	96
TAP	46	144	5
HLD	46	192	5	96
TAP	46	288	3
HLD	46	336	3	96
TAP	47	48	7
HLD	47	96	7	192
TAP	47	144	6
TAP	47	192	5
TAP	47	240	4
STR	47	288	3
SUR	47	288	3	96	96	4
STR	48	0	4
SCR	48	0	4	96	144	3
BRK	48	288	1
BRK	48	288	6
TAP	49	0	4
TAP	49	0	5
TAP	49	48	4
TAP	49	48	5
TAP	49	144	2
TAP	49	144	3
TAP	49	192	2
TAP	49	192	3
TAP	49	288	4
TAP	49	312	3
TAP	49	336	4
TAP	50	0	2
TAP	50	0	5
TAP	50	48	1
TAP	50	48	6
TAP	50	96	0
STR	50	96	7
SXR	50	96	7	96	192	4
TAP	50	336	3
TAP	50	352	2
TAP	50	368	1
BRK	51	0	0
STR	51	240	0
SUL	51	240	0	96	48	4
STR	51	240	4
SUL	51	240	4	96	48	0
TAP	51	264	1
TAP	51	264	5
TAP	51	288	2
TAP	51	288	6
TAP	51	312	3
TAP	51	312	7
BST	51	336	0
SCR	51	336	0	96	48	3
BST	51	336	4
SCR	51	336	4	96	48	7
TAP	52	48	0
TAP	52	48	4
TAP	52	144	0
TAP	52	168	1
STR	52	192	7
SCL	52	192	7	96	48	4
SCR	52	192	7	96	48	2
TAP	52	216	2
TAP	52	240	6
BST	52	288	7
SF_	52	288	7	96	48	3
TAP	53	0	7
TAP	53	96	7
TAP	53	120	6
STR	53	144	0
SCL	53	144	0	96	48	5
SCR	53	144	0	96	48	3
TAP	53	168	5
TAP	53	192	1
BST	53	240	0
SF_	53	240	0	96	48	4
TAP	53	336	0
TAP	54	48	2
TAP	54	48	4
HLD	54	96	0	96
STR	54	96	6
SCR	54	96	6	96	192	4
TAP	54	288	5
TAP	54	336	6
TAP	55	0	7
TAP	55	48	0
TAP	55	96	1
BRK	55	144	2
TAP	55	168	5
TAP	55	192	3
TAP	55	216	5
TAP	55	240	4
TAP	55	264	5
TAP	55	288	6
TAP	55	312	5
TAP	55	336	7
TAP	55	360	5
TAP	56	0	0
TAP	56	24	5
TAP	56	48	1
TAP	56	72	1
TAP	56	96	5
TAP	56	120	2
TAP	56	144	4
TAP	56	168	2
TAP	56	192	3
TAP	56	216	2
TAP	56	240	1
TAP	56	264	2
TAP	56	288	0
TAP	56	312	2
TAP	56	336	7
TAP	56	360	2
TAP	57	0	6
TAP	57	24	6
TAP	57	48	2
TAP	57	72	4
TAP	57	96	3
TAP	57	120	5
TAP	57	144	3
TAP	57	168	4
TAP	57	192	1
TAP	57	216	3
TAP	57	240	2
TAP	57	264	6
TAP	57	288	4
TAP	57	312	5
TAP	57	336	0
TAP	57	360	2
TAP	58	0	1
TAP	58	24	7
TAP	58	48	5
TAP	58	72	6
BRK	58	96	0
BRK	58	96	7
TAP	58	168	7
TAP	58	192	6
TAP	58	216	5
TAP	58	240	2
TAP	58	252	3
TAP	58	264	4
TAP	58	276	5
TAP	58	288	6
TAP	58	300	7
TAP	58	312	0
TAP	58	324	1
BST	58	336	2
SLR	58	336	2	96	48	0
HLD	58	336	4	96
TAP	59	144	0
TAP	59	168	6
TAP	59	192	1
TAP	59	216	5
TAP	59	240	2
TAP	59	240	4
HLD	59	288	3	96
BST	59	288	5
SLL	59	288	5	96	48	7
TAP	60	96	7
TAP	60	120	1
TAP	60	144	6
TAP	60	168	2
TAP	60	192	3
TAP	60	192	5
HLD	60	240	4	48
HLD	60	240	6	48
HLD	60	312	1	48
HLD	60	312	3	48
HLD	61	0	5	48
HLD	61	0	7	48
HLD	61	72	0	48
HLD	61	72	2	48
TAP	61	144	4
TAP	61	168	3
HLD	61	216	2	48
HLD	61	216	6	48
HLD	61	288	0	48
HLD	61	288	4	48
STR	61	360	1
SI_	61	360	1	96	24	6
STR	61	360	5
SI_	61	360	5	96	24	2
TAP	61	376	2
TAP	61	376	6
TAP	62	8	3
TAP	62	8	7
TAP	62	24	0
TAP	62	24	4
TAP	62	120	3
TAP	62	144	4
TAP	62	168	2
TAP	62	192	5
TAP	62	216	1
TAP	62	240	6
BRK	62	264	0
BRK	62	264	7
TAP	62	360	1
TAP	63	24	5
STR	63	120	2
SUR	63	120	2	96	216	4
STR	63	168	6
SUR	63	168	6	96	168	0
BST	64	168	2
SI_	64	168	2	96	24	6
BRK	64	168	3
BST	64	264	1
SI_	64	264	1	96	24	5
BRK	64	264	2
BST	64	360	0
SI_	64	360	0	96	24	4
BRK	64	360	1
BRK	65	72	0
BST	65	72	7
SI_	65	72	7	96	24	3
BST	65	168	6
SI_	65	168	6	96	24	2
BRK	65	168	7
BST	65	264	5
SI_	65	264	5	96	24	1
BRK	65	264	6
BST	65	360	4
SF_	65	360	4	96	48	0
BRK	65	360	5
BRK	66	72	4
HLD	66	276	0	1
HLD	67	84	1	1
HLD	67	276	2	1
HLD	68	84	3	1
HLD	68	276	4	1
HLD	69	84	5	1
TAP	69	264	6
STR	69	312	6
SUL	69	312	6	96	96	0
STR	70	24	0
SUL	70	24	0	96	96	2
STR	70	120	2
SUL	70	120	2	96	96	4
STR	70	216	4
SCL	70	216	4	96	96	1
STR	70	312	1
SCL	70	312	1	96	96	5
TAP	71	24	4
TAP	71	72	3
TAP	71	168	1
STR	71	216	1
SUR	71	216	1	96	96	7
STR	71	312	7
SUR	71	312	7	96	96	5
STR	72	24	5
SUR	72	24	5	96	96	3
STR	72	120	3
SCR	72	120	3	96	96	6
STR	72	216	6
SCR	72	216	6	96	96	2
TAP	72	312	3
TAP	72	360	4
TAP	73	72	5
TAP	73	96	4
TAP	73	120	5
TAP	73	144	6
TAP	73	168	5
TAP	73	216	2
TAP	73	240	3
TAP	73	264	2
TAP	73	312	6
TAP	73	336	7
TAP	73	360	6
TAP	74	24	1
TAP	74	48	0
TAP	74	72	1
TAP	74	120	4
TAP	74	144	3
TAP	74	168	5
TAP	74	192	3
TAP	74	216	6
TAP	74	240	3
TAP	74	264	7
TAP	74	276	0
TAP	74	288	1
TAP	74	300	2
TAP	74	312	3
TAP	74	324	4
TAP	74	336	5
TAP	74	348	6
TAP	74	360	2
TAP	75	0	3
TAP	75	24	2
TAP	75	48	1
TAP	75	72	2
TAP	75	120	5
TAP	75	144	4
TAP	75	168	5
TAP	75	216	1
TAP	75	240	0
TAP	75	264	1
TAP	75	312	6
TAP	75	336	7
TAP	75	360	6
TAP	76	24	3
TAP	76	48	4
TAP	76	72	2
TAP	76	96	4
TAP	76	120	1
TAP	76	144	4
TAP	76	168	0
TAP	76	180	7
TAP	76	192	6
TAP	76	204	5
TAP	76	216	4
TAP	76	228	3
TAP	76	240	2
TAP	76	252	1
TAP	76	264	5
TAP	76	288	4
TAP	76	312	5
TAP	76	336	6
TAP	76	360	5
TAP	77	24	2
TAP	77	48	3
TAP	77	72	1
TAP	77	120	6
TAP	77	144	7
TAP	77	168	5
TAP	77	216	1
TAP	77	240	0
TAP	77	264	2
TAP	77	312	5
TAP	77	336	4
TAP	77	360	6
TAP	78	0	4
TAP	78	24	7
TAP	78	48	4
TAP	78	72	0
TAP	78	84	1
TAP	78	96	2
TAP	78	108	3
TAP	78	120	4
TAP	78	132	5
TAP	78	144	6
TAP	78	156	7
BST	78	168	0
SI_	78	168	0	96	24	5
BST	78	168	4
SI_	78	168	4	96	24	1
TAP	78	240	0
TAP	78	240	4
TAP	78	312	2
STR	78	312	6
SLR	78	312	6	96	72	4
TAP	79	24	2
TAP	79	72	1
BST	79	120	0
SCL	79	120	0	96	48	5
SCR	79	120	0	96	48	3
BRK	79	216	0
TAP	79	312	4
TAP	79	336	3
BRK	79	360	2
BRK	79	372	1
BRK	80	0	0
BRK	80	12	7
BRK	80	24	6
BRK	80	36	5
BRK	80	48	4

T_REC_TAP	590
T_REC_BRK	35
T_REC_XTP	0
T_REC_HLD	46
T_REC_XHO	0
T_REC_STR	50
T_REC_BST	42
T_REC_XST	0
T_REC_TTP	0
T_REC_THO	0
T_REC_SLD	96
T_REC_ALL	859
T_NUM_TAP	640
T_NUM_BRK	77
T_NUM_HLD	46
T_NUM_SLD	96
T_NUM_ALL	859
T_JUDGE_TAP	717
T_JUDGE_HLD	94
T_JUDGE_SLD	96
T_JUDGE_ALL	907
TTM_EACHPAIRS	151
TTM_SCR_TAP	320000
TTM_SCR_BRK	200200
TTM_SCR_HLD	46000
TTM_SCR_SLD	144000
TTM_SCR_ALL	710200
TTM_SCR_S	681450
TTM_SCR_SS	702500
TTM_RAT_ACV	10109

