VERSION	0.00.00	1.03.00
FES_MODE	0
BPM_DEF	150.000	150.000	150.000	150.000
MET_DEF	4	4
RESOLUTION	384
CLK_DEF	672
COMPATIBLE_CODE	MA2

BPM	0	0	150.000
MET	0	0	4	7
MET	21	0	4	3
MET	21	288	4	7
MET	35	288	4	5
MET	45	288	4	6
MET	50	96	8	11
MET	51	240	4	1
MET	51	336	4	7
MET	60	240	16	33
MET	62	264	4	7

STR	3	192	7
SI_	3	192	7	96	96	3
STR	4	0	0
SI_	4	0	0	96	96	2
STR	4	192	6
SI_	4	192	6	96	96	4
TAP	5	0	0
STR	5	96	0
SI_	5	96	0	96	96	4
STR	5	288	7
SI_	5	288	7	96	96	5
STR	6	96	1
SI_	6	96	1	96	96	3
TAP	6	288	7
TAP	7	0	0
TAP	7	0	6
TAP	7	48	0
TAP	7	48	6
TAP	7	144	2
TAP	7	144	3
TAP	7	240	2
TAP	7	240	3
TAP	7	336	1
TAP	7	336	7
TAP	8	48	1
TAP	8	48	7
TAP	8	144	4
TAP	8	144	5
TAP	8	192	4
TAP	8	192	5
TAP	8	288	0
TAP	8	288	6
TAP	8	336	0
TAP	8	336	6
TAP	9	48	2
TAP	9	48	3
TAP	9	144	2
TAP	9	144	3
TAP	9	240	1
TAP	9	240	7
TAP	9	336	1
TAP	9	336	7
TAP	10	48	4
TAP	10	48	5
TAP	10	96	4
TAP	10	96	5
TAP	10	192	0
TAP	10	192	2
TAP	10	240	0
TAP	10	240	2
TAP	10	336	4
TAP	10	336	5
TAP	11	48	4
TAP	11	48	5
TAP	11	144	5
TAP	11	144	7
TAP	11	240	5
TAP	11	240	7
TAP	11	336	2
TAP	11	336	3
TAP	12	0	2
TAP	12	0	3
TAP	12	96	0
TAP	12	96	2
TAP	12	144	0
TAP	12	144	2
TAP	12	240	4
TAP	12	240	5
TAP	12	336	4
TAP	12	336	5
TAP	13	48	5
TAP	13	48	7
TAP	13	144	5
TAP	13	144	7
TAP	13	240	2
TAP	13	240	3
TAP	13	288	2
TAP	13	288	3
HLD	14	0	0	96
HLD	14	0	7	288
HLD	14	192	1	288
HLD	15	0	6	288
HLD	15	192	2	288
HLD	16	0	5	288
HLD	16	192	3	288
HLD	17	0	4	288
HLD	17	192	3	288
HLD	18	0	5	288
HLD	18	192	2	288
HLD	19	0	6	288
HLD	19	192	1	288
HLD	20	0	7	288
HLD	20	192	0	96
BRK	21	288	2
BRK	21	288	7
TAP	21	336	1
TAP	22	0	1
HLD	22	96	0	72
HLD	22	168	7	72
TAP	22	240	6
TAP	22	336	5
TAP	22	336	7
TAP	23	0	5
TAP	23	0	7
TAP	23	96	4
TAP	23	144	4
TAP	23	192	0
TAP	23	192	5
TAP	23	240	6
TAP	23	288	6
HLD	24	0	7	72
HLD	24	72	0	72
TAP	24	144	1
TAP	24	240	0
TAP	24	240	2
TAP	24	288	0
TAP	24	288	2
TAP	25	0	3
TAP	25	48	3
TAP	25	96	1
TAP	25	96	4
TAP	25	144	3
TAP	25	192	2
HLD	25	288	1	72
HLD	25	360	0	72
TAP	26	48	7
TAP	26	144	0
TAP	26	144	6
TAP	26	192	0
TAP	26	192	6
TAP	26	288	5
TAP	26	336	5
TAP	27	0	3
TAP	27	0	6
TAP	27	48	4
TAP	27	96	5
HLD	27	192	6	72
HLD	27	264	7	72
STR	27	336	0
SUL	27	336	0	96	144	7
BRK	28	288	0
BRK	28	288	5
TAP	28	336	7
TAP	29	0	6
TAP	29	24	6
HLD	29	96	0	72
HLD	29	168	6	72
TAP	29	240	4
TAP	29	336	4
TAP	29	336	5
TAP	30	0	4
STR	30	0	5
SLR	30	0	5	96	48	1
TAP	30	96	3
TAP	30	144	3
TAP	30	192	2
TAP	30	192	7
TAP	30	240	0
TAP	30	288	1
TAP	30	312	1
HLD	31	0	7	72
HLD	31	72	1	72
TAP	31	144	3
TAP	31	240	2
TAP	31	240	3
STR	31	288	2
SLL	31	288	2	96	48	6
TAP	31	288	3
TAP	32	0	4
TAP	32	48	4
TAP	32	96	0
TAP	32	96	5
TAP	32	144	7
TAP	32	192	6
TAP	32	216	6
HLD	32	288	0	72
HLD	32	360	6	72
TAP	33	48	4
TAP	33	144	4
TAP	33	144	5
TAP	33	192	4
STR	33	192	5
SLR	33	192	5	96	48	1
TAP	33	288	3
TAP	33	336	3
TAP	34	0	2
TAP	34	0	7
TAP	34	48	0
TAP	34	96	1
TAP	34	120	1
HLD	34	192	7	72
HLD	34	264	1	72
TAP	34	336	3
TAP	35	48	2
TAP	35	48	4
STR	35	96	2
SI_	35	96	2	96	48	6
STR	35	96	4
SI_	35	96	4	96	48	0
BRK	35	288	1
BRK	35	288	7
TAP	35	360	4
TAP	35	360	5
TAP	36	48	0
TAP	36	48	6
TAP	36	120	2
TAP	36	120	3
STR	36	192	6
SI_	36	192	6	96	48	3
STR	36	192	7
SI_	36	192	7	96	48	2
TAP	36	240	6
TAP	36	240	7
BRK	37	0	0
BRK	37	0	6
TAP	37	72	2
TAP	37	72	3
TAP	37	144	1
TAP	37	144	7
TAP	37	216	4
TAP	37	216	5
STR	37	288	0
SI_	37	288	0	96	48	5
STR	37	288	1
SI_	37	288	1	96	48	4
TAP	37	336	0
TAP	37	336	1
BRK	38	96	1
BRK	38	96	7
TAP	38	168	2
TAP	38	168	6
TAP	38	240	3
TAP	38	240	5
TAP	38	288	4
TAP	38	336	4
TAP	39	0	5
TAP	39	48	5
STR	39	96	6
SXL	39	96	6	96	96	3
TAP	39	336	2
TAP	39	336	4
TAP	40	24	1
TAP	40	24	5
STR	40	96	0
SV_	40	96	0	96	48	3
STR	40	96	6
SV_	40	96	6	96	48	3
TAP	40	144	0
TAP	40	144	6
BRK	40	288	2
BRK	40	288	4
TAP	40	360	6
TAP	40	360	7
TAP	41	48	3
TAP	41	48	5
TAP	41	120	0
TAP	41	120	1
STR	41	192	4
SI_	41	192	4	96	48	1
STR	41	192	5
SI_	41	192	5	96	48	0
TAP	41	240	4
TAP	41	240	5
BRK	42	0	2
BRK	42	0	7
TAP	42	96	3
TAP	42	144	3
TAP	42	192	1
TAP	42	192	4
STR	42	288	2
SI_	42	288	2	96	48	7
STR	42	288	3
SI_	42	288	3	96	48	6
TAP	42	336	2
TAP	42	336	3
BRK	43	96	0
BRK	43	96	5
TAP	43	144	4
TAP	43	192	3
TAP	43	240	2
TAP	43	288	1
TAP	43	288	6
TAP	43	320	1
TAP	43	320	6
TAP	43	352	1
TAP	43	352	6
TAP	44	0	1
TAP	44	0	6
TAP	44	96	7
TAP	44	144	7
STR	44	192	0
SCR	44	192	0	96	192	7
TAP	45	288	0
HLD	45	288	6	144
TAP	46	0	7
HLD	46	48	7	144
TAP	46	144	0
HLD	46	192	0	144
TAP	46	288	1
TAP	46	336	1
HLD	47	96	1	144
TAP	47	96	7
TAP	47	192	0
HLD	47	240	0	144
TAP	47	336	7
HLD	48	0	7	144
TAP	48	96	6
TAP	48	144	6
TAP	48	288	0
TAP	48	288	5
TAP	48	336	6
TAP	49	0	6
TAP	49	48	2
TAP	49	48	7
TAP	49	96	1
TAP	49	144	1
TAP	49	192	0
TAP	49	192	5
TAP	49	240	6
TAP	49	288	7
TAP	49	336	0
TAP	50	0	1
TAP	50	48	2
STR	50	96	3
SCL	50	96	3	96	96	4
HLD	51	0	1	192
HLD	51	0	6	192
TAP	51	240	7
TAP	51	288	0
BST	51	336	1
SI_	51	336	1	96	48	5
STR	52	48	6
SCL	52	48	6	96	48	3
TAP	52	144	0
TAP	52	192	0
TAP	52	240	7
STR	52	288	6
SI_	52	288	6	96	48	2
STR	53	0	1
SCR	53	0	1	96	48	4
TAP	53	96	7
TAP	53	144	7
TAP	53	192	0
STR	53	240	1
SI_	53	240	1	96	48	4
STR	53	336	5
SCL	53	336	5	96	48	2
TAP	54	48	0
TAP	54	96	0
TAP	54	144	7
STR	54	192	6
SI_	54	192	6	96	48	3
STR	54	288	2
SCR	54	288	2	96	48	5
TAP	55	0	7
TAP	55	48	7
TAP	55	96	0
TAP	55	144	0
TAP	55	192	1
TAP	55	240	2
TAP	55	288	3
TAP	55	336	4
TAP	56	0	5
TAP	56	48	3
TAP	56	48	6
TAP	56	96	2
TAP	56	144	1
TAP	56	192	0
TAP	56	240	7
TAP	56	288	6
TAP	56	336	0
TAP	56	336	5
HLD	57	48	0	72
HLD	57	120	1	72
HLD	57	192	2	72
HLD	57	264	3	72
HLD	57	336	4	72
HLD	58	24	5	72
HLD	58	96	6	72
HLD	58	168	7	72
BRK	58	240	0
STR	58	336	2
SI_	58	336	2	96	48	7
STR	59	48	5
SCR	59	48	5	96	48	0
TAP	59	144	3
TAP	59	192	3
TAP	59	240	4
STR	59	288	5
SI_	59	288	5	96	48	0
STR	60	0	2
SCL	60	0	2	96	48	7
TAP	60	96	4
TAP	60	144	4
TAP	60	192	3
TAP	60	240	1
TAP	60	240	3
TAP	60	312	4
TAP	60	312	6
TAP	61	0	0
TAP	61	0	2
TAP	61	72	5
TAP	61	72	7
TAP	61	144	3
TAP	61	144	6
TAP	61	216	0
TAP	61	216	5
TAP	61	288	2
TAP	61	288	7
TAP	61	360	1
TAP	61	360	4
BST	62	48	0
SSL	62	48	0	96	72	4
TAP	62	48	6
TAP	62	264	7
TAP	62	360	0
TAP	62	360	1
TAP	63	24	0
TAP	63	24	1
TAP	63	120	2
TAP	63	120	7
TAP	63	168	3
TAP	63	168	6
TAP	63	216	4
STR	63	216	5
SCR	63	216	5	96	144	2
STR	64	168	1
SI_	64	168	1	96	48	4
STR	64	264	7
SI_	64	264	7	96	48	3
STR	64	360	0
SI_	64	360	0	96	48	4
STR	65	72	6
SI_	65	72	6	96	48	3
STR	65	168	1
SI_	65	168	1	96	48	4
STR	65	264	7
SF_	65	264	7	96	48	3
BRK	66	72	0
TAP	66	120	0
HLD	66	216	6	96
HLD	66	312	0	96
HLD	67	24	2	96
TAP	67	120	4
TAP	67	216	3
TAP	67	216	6
TAP	67	264	4
TAP	67	264	5
TAP	67	360	7
TAP	68	24	7
HLD	68	120	1	96
HLD	68	216	7	96
HLD	68	312	5	96
TAP	69	24	3
TAP	69	120	1
TAP	69	120	4
TAP	69	168	2
TAP	69	168	3
TAP	69	264	0
TAP	69	264	1
TAP	69	312	0
TAP	69	312	1
HLD	70	24	2	96
HLD	70	120	4	96
HLD	70	216	6	96
TAP	70	312	0
TAP	71	24	2
TAP	71	24	7
TAP	71	72	0
TAP	71	72	1
TAP	71	168	6
TAP	71	168	7
TAP	71	216	6
TAP	71	216	7
HLD	71	312	5	96
HLD	72	24	3	96
HLD	72	120	1	96
TAP	72	216	7
TAP	72	312	0
TAP	72	312	5
TAP	72	360	6
TAP	72	360	7
BRK	73	72	0
BRK	73	72	1
TAP	73	120	2
TAP	73	120	7
STR	73	216	0
SI_	73	216	0	96	48	5
TAP	73	216	1
STR	73	312	1
SI_	73	312	1	96	48	4
STR	74	24	6
SI_	74	24	6	96	48	3
STR	74	120	7
SI_	74	120	7	96	48	2
TAP	74	216	5
TAP	74	264	5
TAP	74	360	4
TAP	74	360	5
TAP	75	24	3
TAP	75	24	6
STR	75	120	4
SI_	75	120	4	96	48	1
TAP	75	120	5
STR	75	216	5
SI_	75	216	5	96	48	0
STR	75	312	2
SI_	75	312	2	96	48	7
STR	76	24	3
SI_	76	24	3	96	48	6
TAP	76	120	1
TAP	76	168	1
TAP	76	264	0
TAP	76	264	1
TAP	76	312	2
TAP	76	312	7
STR	77	24	0
SI_	77	24	0	96	48	5
TAP	77	24	1
STR	77	120	2
SI_	77	120	2	96	48	7
STR	77	216	4
SI_	77	216	4	96	48	1
STR	77	312	6
SI_	77	312	6	96	48	3
TAP	78	24	7
TAP	78	72	7
TAP	78	168	1
TAP	78	168	6
TAP	78	216	1
TAP	78	216	6
TAP	78	312	4
TAP	78	312	6
TAP	79	24	1
TAP	79	24	3
TAP	79	120	5
TAP	79	120	7
TAP	79	216	0
TAP	79	216	2
TAP	79	312	1
TAP	79	312	6
BRK	79	360	7
BRK	80	0	0
BRK	80	24	7
BRK	80	48	0

T_REC_TAP	348
T_REC_BRK	24
T_REC_XTP	0
T_REC_HLD	59
T_REC_XHO	0
T_REC_STR	55
T_REC_BST	2
T_REC_XST	0
T_REC_TTP	0
T_REC_THO	0
T_REC_SLD	57
T_REC_ALL	545
T_NUM_TAP	403
T_NUM_BRK	26
T_NUM_HLD	59
T_NUM_SLD	57
T_NUM_ALL	545
T_JUDGE_TAP	429
T_JUDGE_HLD	180
T_JUDGE_SLD	57
T_JUDGE_ALL	666
TTM_EACHPAIRS	139
TTM_SCR_TAP	201500
TTM_SCR_BRK	67600
TTM_SCR_HLD	59000
TTM_SCR_SLD	85500
TTM_SCR_ALL	413600
TTM_SCR_S	398700
TTM_SCR_SS	411000
TTM_RAT_ACV	10063

