VERSION	0.00.00	1.03.00
FES_MODE	0
BPM_DEF	150.000	150.000	150.000	150.000
MET_DEF	4	4
RESOLUTION	384
CLK_DEF	672
COMPATIBLE_CODE	MA2

BPM	0	0	150.000
MET	0	0	4	7
MET	21	0	4	3
MET	21	288	4	7
MET	35	288	4	5
MET	45	288	4	6
MET	50	96	8	11
MET	51	240	4	1
MET	51	336	4	7
MET	60	240	16	33
MET	62	264	4	7

TAP	3	192	0
TAP	4	0	1
TAP	4	192	2
TAP	5	0	3
TAP	5	192	4
TAP	6	0	5
TAP	6	192	6
TAP	7	0	0
TAP	7	0	7
TAP	7	48	0
TAP	7	48	7
TAP	7	144	6
TAP	7	240	5
TAP	7	336	4
TAP	8	48	3
TAP	8	144	2
TAP	8	192	2
TAP	8	288	0
TAP	8	288	7
TAP	8	336	0
TAP	8	336	7
TAP	9	48	1
TAP	9	144	2
TAP	9	240	3
TAP	9	336	4
TAP	10	48	5
TAP	10	96	5
TAP	10	192	0
TAP	10	192	7
TAP	10	240	0
TAP	10	240	7
TAP	10	336	6
TAP	11	48	5
TAP	11	144	4
TAP	11	240	3
TAP	11	336	2
TAP	12	0	2
TAP	12	96	0
TAP	12	96	7
TAP	12	144	0
TAP	12	144	7
TAP	12	240	1
TAP	12	336	2
TAP	13	48	3
TAP	13	144	4
TAP	13	240	5
TAP	13	288	5
BRK	14	0	0
BRK	14	0	7
TAP	14	48	0
TAP	14	48	7
TAP	14	144	6
TAP	14	240	5
TAP	14	336	3
TAP	14	336	4
TAP	15	48	3
TAP	15	48	4
TAP	15	144	2
TAP	15	192	2
TAP	15	288	0
TAP	15	288	7
TAP	15	336	0
TAP	15	336	7
TAP	16	48	1
TAP	16	144	2
TAP	16	240	3
TAP	16	240	4
TAP	16	336	3
TAP	16	336	4
TAP	17	48	5
TAP	17	96	5
TAP	17	192	0
TAP	17	192	7
TAP	17	240	0
TAP	17	240	7
TAP	17	336	6
TAP	18	48	5
TAP	18	144	3
TAP	18	144	4
TAP	18	240	3
TAP	18	240	4
TAP	18	336	2
TAP	19	0	2
TAP	19	96	0
TAP	19	96	7
TAP	19	144	0
TAP	19	144	7
TAP	19	240	1
TAP	19	336	2
TAP	20	48	3
TAP	20	48	4
TAP	20	144	3
TAP	20	144	4
TAP	20	240	5
TAP	20	288	5
TAP	21	0	6
TAP	21	96	7
TAP	21	192	0
HLD	21	288	0	96
HLD	21	288	1	96
HLD	22	96	1	96
HLD	22	96	2	96
HLD	22	288	2	96
HLD	22	288	3	96
TAP	23	96	3
TAP	23	96	4
HLD	23	192	4	96
HLD	23	192	5	96
HLD	24	0	5	96
HLD	24	0	6	96
HLD	24	192	6	96
HLD	24	192	7	96
TAP	25	0	0
TAP	25	0	7
HLD	25	96	0	96
HLD	25	96	1	96
HLD	25	288	2	96
HLD	25	288	3	96
HLD	26	96	4	96
HLD	26	96	5	96
TAP	26	288	6
TAP	26	288	7
HLD	27	0	0	96
HLD	27	0	1	96
HLD	27	192	3	96
HLD	27	192	4	96
TAP	28	0	6
STR	28	0	7
SI_	28	0	7	96	96	3
TAP	28	288	2
TAP	29	0	2
TAP	29	0	3
TAP	29	96	5
TAP	29	192	4
TAP	29	192	5
TAP	29	288	2
TAP	30	0	2
TAP	30	0	3
TAP	30	96	4
TAP	30	96	5
TAP	30	192	2
TAP	30	288	1
TAP	30	288	3
TAP	31	0	5
TAP	31	96	4
TAP	31	96	6
TAP	31	192	2
TAP	31	288	1
TAP	31	288	3
TAP	32	0	4
TAP	32	0	6
TAP	32	96	1
TAP	32	192	0
TAP	32	192	2
TAP	32	288	6
TAP	33	0	5
TAP	33	0	7
TAP	33	96	1
TAP	33	192	0
TAP	33	192	2
TAP	33	288	5
TAP	33	288	7
TAP	34	0	0
TAP	34	0	1
TAP	34	96	6
TAP	34	96	7
TAP	34	192	2
TAP	34	192	5
STR	34	288	0
SXL	34	288	0	96	192	2
STR	34	288	7
SXR	34	288	7	96	192	5
STR	35	288	1
SLR	35	288	1	96	192	5
STR	37	0	6
SLL	37	0	6	96	192	2
STR	38	96	0
SCR	38	96	0	96	288	5
STR	39	192	7
SSR	39	192	7	96	288	3
STR	40	288	1
SXL	40	288	1	96	288	4
STR	42	0	6
SXR	42	0	6	96	288	3
STR	43	96	1
SUL	43	96	1	96	288	6
STR	44	192	7
SF_	44	192	7	96	192	3
BRK	45	288	0
BRK	45	288	7
HLD	46	48	1	144
HLD	46	192	2	144
TAP	46	336	3
HLD	47	96	6	144
HLD	47	240	5	144
HLD	48	0	4	144
TAP	48	144	3
HLD	48	288	1	144
HLD	49	48	3	144
HLD	49	192	4	144
TAP	49	336	6
STR	50	96	0
SXL	50	96	0	96	288	3
STR	50	96	7
SXR	50	96	7	96	288	4
TAP	51	336	2
TAP	51	336	3
TAP	52	48	1
TAP	52	48	4
TAP	52	144	2
TAP	52	192	3
TAP	52	240	2
TAP	52	288	3
TAP	53	0	3
TAP	53	0	6
TAP	53	96	5
TAP	53	144	4
TAP	53	192	5
TAP	53	240	4
TAP	53	336	1
TAP	53	336	6
TAP	54	48	0
TAP	54	96	7
TAP	54	144	0
TAP	54	192	7
TAP	54	288	0
TAP	54	288	7
TAP	54	336	0
TAP	54	336	7
TAP	55	48	1
TAP	55	48	6
TAP	55	144	2
TAP	55	240	2
TAP	55	240	3
TAP	55	336	1
TAP	55	336	4
TAP	56	0	1
TAP	56	0	4
TAP	56	96	5
TAP	56	192	4
TAP	56	192	5
TAP	56	288	3
TAP	56	288	6
TAP	56	336	3
TAP	56	336	6
TAP	57	48	3
TAP	57	48	4
TAP	57	120	3
TAP	57	120	4
TAP	57	192	2
TAP	57	192	5
TAP	57	264	2
TAP	57	264	5
TAP	57	336	1
TAP	57	336	6
TAP	58	24	1
TAP	58	24	6
TAP	58	96	0
TAP	58	96	7
BRK	58	168	0
BRK	58	168	7
TAP	58	336	0
TAP	58	336	1
TAP	59	48	2
TAP	59	48	7
TAP	59	144	1
TAP	59	192	0
TAP	59	240	1
TAP	59	288	0
TAP	60	0	0
TAP	60	0	5
TAP	60	96	6
TAP	60	144	7
TAP	60	192	6
TAP	60	240	7
TAP	60	312	0
TAP	61	0	0
TAP	61	0	7
TAP	61	72	1
TAP	61	72	6
TAP	61	144	2
TAP	61	144	5
TAP	61	216	1
TAP	61	216	6
STR	61	288	0
SSL	61	288	0	96	192	4
TAP	61	288	7
TAP	62	264	5
TAP	62	360	2
TAP	63	24	2
TAP	63	120	4
TAP	63	168	3
STR	63	216	4
SCL	63	216	4	96	168	1
SCR	63	216	4	96	168	7
TAP	64	168	0
TAP	64	264	1
TAP	64	360	2
TAP	65	72	3
TAP	65	168	4
TAP	65	264	5
TAP	65	360	6
BST	66	72	7
SCR	66	72	7	96	312	6
TAP	67	360	0
TAP	67	360	1
TAP	68	24	0
TAP	68	24	1
TAP	68	120	2
TAP	68	216	2
TAP	68	216	3
TAP	68	312	5
TAP	69	24	4
TAP	69	24	5
TAP	69	120	3
TAP	69	120	4
TAP	69	168	2
TAP	69	168	5
TAP	69	264	6
TAP	69	264	7
TAP	69	312	6
TAP	69	312	7
TAP	70	24	5
TAP	70	120	4
TAP	70	120	5
TAP	70	216	2
TAP	70	312	2
TAP	70	312	3
TAP	71	24	3
TAP	71	24	4
TAP	71	72	2
TAP	71	72	5
TAP	71	168	0
TAP	71	168	7
TAP	71	216	1
TAP	71	216	6
TAP	71	312	2
TAP	72	24	1
TAP	72	24	3
TAP	72	120	5
TAP	72	216	4
TAP	72	216	6
TAP	72	312	3
TAP	72	312	4
TAP	72	360	2
TAP	72	360	5
TAP	73	72	0
TAP	73	72	1
TAP	73	120	2
TAP	73	120	7
TAP	73	216	1
TAP	73	312	3
TAP	73	312	4
TAP	74	24	6
TAP	74	120	3
TAP	74	120	4
TAP	74	216	0
TAP	74	216	7
TAP	74	264	2
TAP	74	264	5
TAP	74	360	6
TAP	74	360	7
TAP	75	24	0
TAP	75	24	5
TAP	75	120	6
TAP	75	216	3
TAP	75	216	4
TAP	75	312	1
TAP	76	24	3
TAP	76	24	4
TAP	76	120	0
TAP	76	120	7
TAP	76	168	2
TAP	76	168	5
TAP	76	264	2
TAP	76	264	3
TAP	76	312	1
TAP	76	312	4
TAP	77	24	0
TAP	77	120	4
TAP	77	120	5
TAP	77	216	7
TAP	77	312	2
TAP	77	312	3
TAP	78	24	0
TAP	78	24	1
TAP	78	72	3
TAP	78	72	6
TAP	78	168	4
TAP	78	168	5
TAP	78	216	3
TAP	78	216	6
TAP	78	312	7
TAP	79	24	2
TAP	79	24	3
TAP	79	120	0
TAP	79	216	4
TAP	79	216	5
TAP	79	312	6
TAP	79	312	7
TAP	79	360	1
TAP	79	360	4
BRK	80	72	0
BRK	80	72	7

T_REC_TAP	333
T_REC_BRK	8
T_REC_XTP	0
T_REC_HLD	30
T_REC_XHO	0
T_REC_STR	15
T_REC_BST	1
T_REC_XST	0
T_REC_TTP	0
T_REC_THO	0
T_REC_SLD	17
T_REC_ALL	404
T_NUM_TAP	348
T_NUM_BRK	9
T_NUM_HLD	30
T_NUM_SLD	17
T_NUM_ALL	404
T_JUDGE_TAP	357
T_JUDGE_HLD	68
T_JUDGE_SLD	17
T_JUDGE_ALL	442
TTM_EACHPAIRS	129
TTM_SCR_TAP	174000
TTM_SCR_BRK	23400
TTM_SCR_HLD	30000
TTM_SCR_SLD	25500
TTM_SCR_ALL	252900
TTM_SCR_S	244450
TTM_SCR_SS	252000
TTM_RAT_ACV	10035

