VERSION	0.00.00	1.03.00
FES_MODE	0
BPM_DEF	150.000	150.000	150.000	150.000
MET_DEF	4	4
RESOLUTION	384
CLK_DEF	672
COMPATIBLE_CODE	MA2

BPM	0	0	150.000
MET	0	0	4	7
MET	3	192	4	4
MET	4	192	4	3
MET	5	96	4	4
MET	6	96	4	3
MET	7	0	4	4
MET	8	0	4	3
MET	8	288	4	4
MET	9	288	4	3
MET	10	192	4	4
MET	11	192	4	3
MET	12	96	4	4
MET	13	96	4	3
MET	14	0	4	4
MET	15	0	4	3
MET	15	288	4	4
MET	16	288	4	3
MET	17	192	4	4
MET	18	192	4	3
MET	19	96	4	4
MET	20	96	4	3
MET	21	0	4	3
MET	21	288	4	7
MET	35	288	4	5
MET	45	288	4	3
MET	51	0	8	7
MET	62	144	8	5
MET	62	264	8	7
MET	64	168	4	7

TAP	3	192	0
TAP	4	0	1
TAP	4	192	2
TAP	5	0	3
TAP	5	192	4
TAP	6	0	5
TAP	6	192	6
BRK	7	0	7
TAP	7	192	7
TAP	8	0	6
TAP	8	0	7
TAP	8	192	6
TAP	8	192	7
TAP	8	288	6
TAP	8	288	7
TAP	9	96	5
TAP	9	288	4
TAP	9	288	5
TAP	10	96	4
TAP	10	96	5
TAP	10	192	4
TAP	10	192	5
TAP	11	0	3
TAP	11	192	2
TAP	11	192	3
TAP	12	0	2
TAP	12	0	3
TAP	12	96	2
TAP	12	96	3
TAP	12	288	1
TAP	13	96	0
TAP	13	96	1
TAP	13	288	0
TAP	13	288	1
TAP	14	0	0
TAP	14	0	1
TAP	14	192	2
TAP	14	192	3
TAP	15	0	3
TAP	15	0	4
TAP	15	192	4
TAP	15	192	5
TAP	15	288	4
TAP	15	288	5
TAP	16	96	2
TAP	16	96	3
TAP	16	288	3
TAP	16	288	4
TAP	17	96	4
TAP	17	96	5
TAP	17	192	4
TAP	17	192	5
TAP	18	0	6
TAP	18	0	7
TAP	18	192	0
TAP	18	192	7
TAP	19	0	0
TAP	19	0	1
TAP	19	96	0
TAP	19	96	1
TAP	19	288	6
TAP	19	288	7
TAP	20	96	0
TAP	20	96	7
TAP	20	288	1
TAP	20	288	6
TAP	21	0	7
TAP	21	96	7
TAP	21	192	7
BRK	21	288	0
TAP	22	0	0
TAP	22	96	1
TAP	22	192	1
TAP	22	288	2
TAP	23	0	2
TAP	23	96	3
TAP	23	192	3
TAP	23	288	4
TAP	24	0	4
TAP	24	96	5
TAP	24	192	5
TAP	24	288	6
TAP	25	0	6
TAP	25	96	7
TAP	25	192	7
TAP	25	288	0
TAP	26	0	1
TAP	26	96	2
TAP	26	192	3
TAP	26	288	4
TAP	27	0	5
TAP	27	96	6
TAP	27	192	7
TAP	27	288	0
BRK	28	0	0
BRK	28	0	7
STR	28	288	0
SI_	28	288	0	96	288	4
STR	30	192	6
SI_	30	192	6	96	288	1
STR	32	96	2
SI_	32	96	2	96	288	6
STR	34	0	4
SI_	34	0	4	96	288	0
HLD	35	288	0	288
HLD	35	288	1	288
HLD	37	0	6	288
HLD	37	0	7	288
HLD	38	96	1	288
HLD	38	96	7	288
HLD	39	192	0	288
HLD	39	192	6	288
HLD	40	288	2	288
HLD	40	288	7	288
HLD	42	0	0	288
HLD	42	0	5	288
STR	43	96	0
SI_	43	96	0	96	288	3
STR	43	96	7
SI_	43	96	7	96	288	4
TAP	45	288	3
TAP	46	48	3
TAP	46	192	2
TAP	46	336	2
TAP	47	96	1
TAP	47	240	1
TAP	48	0	0
TAP	48	144	0
TAP	48	144	7
TAP	48	288	6
TAP	49	48	6
TAP	49	192	5
TAP	49	336	5
HLD	50	96	4	288
TAP	51	0	3
TAP	51	336	3
TAP	52	48	3
TAP	52	144	3
TAP	52	144	4
TAP	52	288	2
TAP	53	0	2
TAP	53	96	2
TAP	53	96	3
TAP	53	240	1
TAP	53	336	1
TAP	54	48	0
TAP	54	48	1
HLD	54	192	0	192
HLD	54	192	7	192
TAP	55	144	6
TAP	55	240	6
TAP	55	336	6
TAP	55	336	7
TAP	56	96	5
TAP	56	192	5
TAP	56	288	4
TAP	56	288	5
HLD	57	48	3	144
TAP	57	192	4
HLD	57	336	4	144
TAP	58	96	3
TAP	58	240	3
TAP	58	240	4
TAP	58	336	2
TAP	59	48	2
TAP	59	144	2
TAP	59	144	3
TAP	59	288	5
TAP	60	0	5
TAP	60	96	4
TAP	60	96	5
STR	60	240	3
SI_	60	240	3	96	288	0
STR	60	240	4
SI_	60	240	4	96	288	7
STR	62	264	0
SI_	62	264	0	96	288	3
STR	62	264	7
SI_	62	264	7	96	288	4
TAP	64	168	3
TAP	64	264	3
TAP	64	360	3
TAP	65	72	3
TAP	65	168	4
TAP	65	264	4
TAP	65	360	4
TAP	66	72	4
TAP	66	72	5
TAP	66	264	4
TAP	66	264	5
HLD	67	72	3	192
HLD	67	72	6	192
TAP	67	360	2
TAP	67	360	3
TAP	68	168	2
TAP	68	168	3
HLD	68	360	1	192
HLD	68	360	4	192
TAP	69	264	0
TAP	69	264	1
TAP	70	72	0
TAP	70	72	1
HLD	70	264	2	192
HLD	70	264	7	192
TAP	71	168	6
TAP	71	168	7
TAP	71	360	6
TAP	71	360	7
HLD	72	168	0	192
HLD	72	168	5	192
TAP	73	72	0
TAP	73	168	0
TAP	73	264	7
TAP	73	360	7
TAP	74	72	0
TAP	74	72	6
TAP	74	168	0
TAP	74	168	6
TAP	74	264	0
TAP	74	264	6
TAP	74	360	5
TAP	75	72	5
TAP	75	168	4
TAP	75	264	4
TAP	75	360	3
TAP	75	360	5
TAP	76	72	3
TAP	76	72	5
TAP	76	168	3
TAP	76	168	5
TAP	76	264	2
TAP	76	360	2
TAP	77	72	1
TAP	77	168	1
TAP	77	264	0
TAP	77	264	2
TAP	77	360	0
TAP	77	360	2
TAP	78	72	0
TAP	78	72	2
TAP	78	168	3
TAP	78	264	3
TAP	78	360	4
STR	79	72	3
SI_	79	72	3	96	288	0
STR	79	72	4
SI_	79	72	4	96	288	7

T_REC_TAP	194
T_REC_BRK	4
T_REC_XTP	0
T_REC_HLD	25
T_REC_XHO	0
T_REC_STR	12
T_REC_BST	0
T_REC_XST	0
T_REC_TTP	0
T_REC_THO	0
T_REC_SLD	12
T_REC_ALL	247
T_NUM_TAP	206
T_NUM_BRK	4
T_NUM_HLD	25
T_NUM_SLD	12
T_NUM_ALL	247
T_JUDGE_TAP	210
T_JUDGE_HLD	124
T_JUDGE_SLD	12
T_JUDGE_ALL	346
TTM_EACHPAIRS	69
TTM_SCR_TAP	103000
TTM_SCR_BRK	10400
TTM_SCR_HLD	25000
TTM_SCR_SLD	18000
TTM_SCR_ALL	156400
TTM_SCR_S	151350
TTM_SCR_SS	156000
TTM_RAT_ACV	10025

