VERSION	0.00.00	1.03.00
FES_MODE	0
BPM_DEF	190.000	190.000	190.000	190.000
MET_DEF	4	4
RESOLUTION	384
CLK_DEF	384
COMPATIBLE_CODE	MA2

BPM	0	0	190.000
MET	0	0	4	4

TAP	1	0	1
TAP	1	0	6
TAP	1	96	2
TAP	1	96	5
TAP	1	192	3
TAP	1	192	4
TAP	1	288	0
TAP	1	288	7
TAP	2	0	4
TAP	2	96	3
TAP	2	96	5
TAP	2	192	2
TAP	2	192	6
TAP	2	288	1
STR	2	288	7
SCL	2	288	7	96	48	4
TAP	2	336	0
STR	3	0	7
SCR	3	0	7	96	48	2
STR	3	96	7
SI_	3	96	7	96	48	3
TAP	4	0	0
TAP	4	0	6
TAP	4	96	1
TAP	4	96	5
TAP	4	192	2
TAP	4	192	4
TAP	4	240	3
TAP	4	288	2
TAP	4	288	4
TAP	5	0	1
TAP	5	0	5
STR	5	96	0
SI_	5	96	0	96	48	3
STR	5	96	6
SI_	5	96	6	96	48	3
TAP	5	192	0
TAP	5	192	6
TAP	6	0	3
TAP	6	96	2
TAP	6	96	4
TAP	6	192	1
TAP	6	192	5
STR	6	288	0
SCR	6	288	0	96	48	3
TAP	6	288	6
TAP	6	336	7
STR	7	0	0
SCL	7	0	0	96	48	5
STR	7	96	0
SI_	7	96	0	96	48	4
TAP	8	0	2
TAP	8	0	6
TAP	8	48	5
TAP	8	72	4
TAP	8	96	5
TAP	8	144	2
TAP	8	144	6
STR	8	192	1
SCR	8	192	1	96	48	3
STR	8	192	7
SCL	8	192	7	96	48	5
TAP	8	288	1
TAP	8	288	7
STR	9	0	0
SCR	9	0	0	96	96	3
STR	9	96	3
SCR	9	96	3	96	96	6
STR	9	192	6
SCR	9	192	6	96	96	1
TAP	9	288	1
BRK	10	0	4
TAP	10	96	1
TAP	10	96	6
TAP	10	192	4
TAP	10	240	2
TAP	10	288	3
TAP	10	336	1
TAP	11	0	0
TAP	11	0	7
TAP	11	96	0
TAP	11	96	7
TAP	11	192	3
TAP	11	240	5
TAP	11	288	4
TAP	11	336	6
TAP	12	0	0
TAP	12	24	7
TAP	12	48	0
TAP	12	72	7
TAP	12	96	1
TAP	12	120	6
TAP	12	144	1
TAP	12	168	6
TAP	12	192	0
TAP	12	216	7
TAP	12	240	0
TAP	12	264	7
TAP	12	288	0
BRK	12	336	1
BRK	12	336	6
TAP	13	96	0
TAP	13	96	7
TAP	13	192	1
TAP	13	192	6
TAP	13	240	3
TAP	13	264	4
TAP	13	288	3
TAP	13	312	4
TAP	13	336	3
TAP	13	360	4
TAP	14	0	3
TAP	14	96	1
TAP	14	96	6
TAP	14	144	0
TAP	14	168	7
TAP	14	192	1
TAP	14	216	6
TAP	14	240	2
TAP	14	288	3
TAP	14	288	4
STR	15	0	1
SCR	15	0	1	96	48	4
TAP	15	96	0
STR	15	192	7
SCL	15	192	7	96	48	4
TAP	15	288	0
STR	16	0	1
SCR	16	0	1	96	48	4
STR	16	96	7
SCL	16	96	7	96	48	4
STR	16	192	1
SCR	16	192	1	96	48	4
TAP	16	288	0
STR	17	0	6
SCL	17	0	6	96	48	3
TAP	17	96	7
STR	17	192	0
SCR	17	192	0	96	48	3
TAP	17	288	7
STR	18	0	6
SCL	18	0	6	96	48	3
STR	18	96	0
SCR	18	96	0	96	48	3
STR	18	192	6
SCL	18	192	6	96	48	3
TAP	18	288	7
HLD	19	0	1	96
TAP	19	0	6
TAP	19	96	3
STR	19	144	3
SI_	19	144	3	96	48	6
TAP	19	240	0
TAP	19	288	0
TAP	20	0	1
HLD	20	0	6	96
TAP	20	96	4
STR	20	144	4
SI_	20	144	4	96	48	1
TAP	20	240	7
TAP	20	288	7
HLD	21	0	1	96
TAP	21	0	6
TAP	21	96	3
STR	21	144	3
SI_	21	144	3	96	48	7
TAP	21	240	0
TAP	21	288	0
HLD	22	0	0	48
HLD	22	48	7	48
HLD	22	96	6	48
HLD	22	144	5	48
HLD	22	192	4	48
HLD	22	240	3	48
HLD	22	288	2	48
HLD	22	336	1	48
STR	23	0	0
SXL	23	0	0	96	192	4
SXR	23	0	0	96	192	4
TAP	24	0	4
TAP	24	0	6
TAP	24	48	4
TAP	24	48	6
TAP	24	96	3
TAP	24	96	5
TAP	24	144	3
TAP	24	144	5
TAP	24	192	2
TAP	24	192	4
TAP	24	240	2
TAP	24	240	4
TAP	24	288	1
TAP	24	288	3
TAP	24	336	1
TAP	24	336	3
TAP	25	0	5
TAP	25	0	7
TAP	25	48	5
TAP	25	48	7
TAP	25	96	0
TAP	25	96	6
TAP	25	144	0
TAP	25	144	6
TAP	25	192	1
TAP	25	192	7
TAP	25	240	1
TAP	25	240	7
TAP	25	288	0
TAP	25	288	2
TAP	25	336	0
TAP	25	336	2
TAP	26	0	4
TAP	26	0	6
TAP	26	48	3
TAP	26	48	5
TAP	26	96	2
TAP	26	96	4
HLD	26	144	1	144
HLD	26	144	3	144
TAP	27	0	0
HLD	27	0	6	96
TAP	27	96	5
STR	27	144	4
SI_	27	144	4	96	48	0
TAP	27	240	7
TAP	27	288	7
HLD	28	0	1	96
TAP	28	0	6
TAP	28	96	2
STR	28	144	3
SI_	28	144	3	96	48	7
TAP	28	240	0
TAP	28	288	0
TAP	29	0	1
HLD	29	0	6	96
TAP	29	96	5
HLD	29	144	4	144
HLD	29	288	6	96
HLD	30	0	1	192
TAP	30	96	7
HLD	30	192	6	96
STR	30	288	4
SI_	30	288	4	96	48	0
BRK	31	0	7
TAP	31	96	5
TAP	31	192	4
TAP	31	192	6
TAP	31	240	4
TAP	31	240	6
TAP	31	336	1
TAP	31	336	3
TAP	32	48	4
TAP	32	48	6
TAP	32	96	5
TAP	32	144	1
TAP	32	144	3
TAP	32	192	2
TAP	32	288	0
TAP	32	288	7
TAP	32	336	0
TAP	32	336	7
TAP	33	96	2
TAP	33	192	1
TAP	33	192	3
TAP	33	240	1
TAP	33	240	3
TAP	33	336	5
TAP	33	336	7
TAP	34	48	0
TAP	34	48	3
TAP	34	96	2
TAP	34	144	4
TAP	34	144	7
TAP	34	192	5
TAP	34	288	0
TAP	34	288	7
HLD	35	0	1	288
TAP	35	0	3
TAP	35	96	5
TAP	35	144	5
TAP	35	240	7
HLD	35	288	7	480
TAP	36	96	5
TAP	36	192	1
TAP	36	288	5
HLD	37	0	1	288
TAP	37	96	0
TAP	37	144	0
TAP	37	240	3
HLD	37	288	3	480
TAP	38	96	5
TAP	38	192	1
TAP	38	288	5
STR	39	0	1
SI_	39	0	1	96	48	4
TAP	39	96	0
TAP	39	144	7
STR	39	192	6
SI_	39	192	6	96	48	3
TAP	39	288	0
TAP	39	336	1
STR	40	0	2
SI_	40	0	2	96	48	7
TAP	40	96	3
TAP	40	144	4
STR	40	192	5
SI_	40	192	5	96	48	0
TAP	40	288	4
TAP	40	336	3
STR	41	0	2
SCR	41	0	2	96	96	5
STR	41	96	5
SCR	41	96	5	96	96	0
STR	41	192	0
SCR	41	192	0	96	96	3
STR	41	288	3
SCR	41	288	3	96	96	7
STR	42	0	7
SCR	42	0	7	96	96	3
STR	42	96	3
SCR	42	96	3	96	96	0
STR	42	192	0
SCR	42	192	0	96	96	6
TAP	42	288	4
HLD	43	0	7	384
TAP	43	96	0
TAP	43	192	1
TAP	43	288	2
STR	44	0	3
SF_	44	0	3	96	144	7
TAP	45	0	0
TAP	45	0	7
TAP	45	48	1
TAP	45	48	6
TAP	45	96	2
TAP	45	96	5
TAP	45	144	3
TAP	45	144	4
TAP	45	192	2
TAP	45	192	5
STR	45	240	1
SI_	45	240	1	96	48	4
STR	45	240	6
SI_	45	240	6	96	48	3
BRK	45	336	1
BRK	45	336	6
TAP	46	48	2
TAP	46	48	5
TAP	46	96	2
TAP	46	96	5
TAP	46	192	2
TAP	46	240	5
TAP	46	288	3
TAP	46	336	4
TAP	47	0	3
TAP	47	0	5
TAP	47	96	1
TAP	47	96	7
TAP	47	192	2
TAP	47	192	4
STR	47	288	0
SCR	47	288	0	96	48	3
TAP	47	288	6
TAP	47	336	7
STR	48	0	0
SCL	48	0	0	96	48	5
STR	48	96	0
SF_	48	96	0	96	48	4
TAP	48	192	0
TAP	49	0	1
TAP	49	0	7
TAP	49	96	2
TAP	49	96	6
TAP	49	192	3
TAP	49	192	5
TAP	49	240	4
TAP	49	288	3
TAP	49	288	5
TAP	50	0	2
TAP	50	0	6
STR	50	96	1
SCR	50	96	1	96	48	4
STR	50	96	7
SCL	50	96	7	96	48	4
TAP	50	192	1
TAP	50	192	7
TAP	51	0	2
TAP	51	0	4
TAP	51	96	0
TAP	51	96	6
TAP	51	192	3
TAP	51	192	5
TAP	51	288	1
STR	51	288	7
SCL	51	288	7	96	48	4
TAP	51	336	0
STR	52	0	7
SCR	52	0	7	96	48	2
STR	52	96	7
SF_	52	96	7	96	48	3
TAP	52	192	7
TAP	53	0	1
TAP	53	0	5
TAP	53	48	2
TAP	53	72	3
TAP	53	96	2
TAP	53	144	1
TAP	53	144	5
STR	53	192	0
SCR	53	192	0	96	48	2
STR	53	192	6
SCL	53	192	6	96	48	4
TAP	53	288	0
TAP	53	288	6
STR	54	0	3
SXL	54	0	3	96	96	4
STR	54	96	4
SCL	54	96	4	96	96	0
BRK	54	192	7
TAP	55	0	1
TAP	55	0	7
TAP	55	96	3
TAP	55	96	5
TAP	55	192	0
TAP	55	192	6
TAP	55	288	2
STR	55	288	4
SCR	55	288	4	96	48	7
TAP	55	336	3
STR	56	0	4
SCL	56	0	4	96	48	1
STR	56	96	4
SF_	56	96	4	96	48	0
TAP	56	192	4
TAP	57	0	1
TAP	57	0	7
TAP	57	96	2
TAP	57	96	6
TAP	57	192	3
TAP	57	192	5
TAP	57	240	1
TAP	57	240	7
TAP	57	336	0
TAP	57	336	6
TAP	58	0	2
TAP	58	0	4
STR	58	96	0
SCR	58	96	0	96	48	3
STR	58	96	6
SCL	58	96	6	96	48	3
TAP	58	192	0
TAP	58	192	6
TAP	59	0	6
STR	59	0	7
SI_	59	0	7	96	48	2
STR	59	96	6
SI_	59	96	6	96	48	3
TAP	59	96	7
TAP	59	192	6
STR	59	192	7
SI_	59	192	7	96	48	2
STR	59	288	6
SI_	59	288	6	96	48	3
TAP	59	288	7
TAP	60	0	6
STR	60	0	7
SI_	60	0	7	96	48	2
STR	60	96	6
SCL	60	96	6	96	48	3
TAP	60	96	7
BRK	60	192	7
TAP	61	0	0
TAP	61	0	1
TAP	61	48	2
TAP	61	48	7
TAP	61	96	3
TAP	61	96	6
TAP	61	144	0
TAP	61	144	7
TAP	61	192	1
TAP	61	192	6
TAP	61	240	2
TAP	61	240	5
TAP	61	288	6
TAP	61	288	7
TAP	61	336	0
TAP	61	336	5
TAP	62	0	1
TAP	62	0	4
TAP	62	48	1
TAP	62	48	4
BRK	62	96	1
BRK	62	96	4
TAP	62	192	0
TAP	62	192	5
TAP	62	264	1
TAP	62	264	6
TAP	62	336	2
TAP	62	336	7
STR	63	0	0
SCL	63	0	0	96	96	4
STR	63	0	3
SCL	63	0	3	96	96	7
TAP	63	288	4
TAP	63	288	7
TAP	63	336	0
TAP	63	336	5
STR	64	0	1
SLR	64	0	1	96	96	7
STR	64	0	6
SLL	64	0	6	96	96	0
BRK	64	288	1
BRK	64	288	6
STR	65	48	1
SI_	65	48	1	96	48	4
TAP	65	96	0
TAP	65	144	1
STR	65	192	6
SI_	65	192	6	96	48	3
TAP	65	240	7
TAP	65	288	6
STR	65	336	1
SI_	65	336	1	96	48	4
TAP	66	0	0
TAP	66	48	1
STR	66	96	6
SI_	66	96	6	96	48	3
TAP	66	144	7
STR	66	192	0
SI_	66	192	0	96	48	4
TAP	66	192	6
BRK	66	288	0
TAP	67	0	5
TAP	67	96	6
TAP	67	192	7
TAP	67	288	0
TAP	67	336	0
TAP	68	96	1
TAP	68	96	7
TAP	68	192	2
TAP	68	192	6
STR	69	0	5
SCR	69	0	5	96	96	0
STR	69	192	2
SCL	69	192	2	96	96	7
STR	70	0	4
SCR	70	0	4	96	192	3
TAP	71	0	2
TAP	71	96	1
TAP	71	96	3
TAP	71	192	5
TAP	71	288	4
TAP	71	288	6
TAP	71	336	4
TAP	71	336	6
TAP	72	48	1
TAP	72	48	3
TAP	72	96	1
TAP	72	96	3
TAP	72	192	2
TAP	72	192	5
BRK	72	288	1
BRK	72	288	6
TAP	73	0	0
STR	73	0	7
SI_	73	0	7	96	48	3
TAP	73	96	1
TAP	73	96	7
TAP	73	192	2
TAP	73	240	3
TAP	73	288	1
STR	74	0	0
SI_	74	0	0	96	48	4
TAP	74	0	7
TAP	74	96	0
TAP	74	96	6
TAP	74	192	5
TAP	74	240	4
TAP	74	288	6
TAP	75	0	0
TAP	75	0	7
TAP	75	96	1
TAP	75	96	6
TAP	75	144	2
TAP	75	144	5
STR	75	240	0
SI_	75	240	0	96	48	2
STR	75	240	7
SI_	75	240	7	96	48	3
TAP	75	336	0
TAP	75	336	7
TAP	76	96	1
TAP	76	96	6
STR	76	192	0
SI_	76	192	0	96	48	4
STR	76	192	7
SI_	76	192	7	96	48	5
TAP	76	288	0
TAP	76	288	7
HLD	77	48	2	96
HLD	77	48	5	96
TAP	77	192	0
TAP	77	192	1
STR	77	240	0
SCL	77	240	0	96	48	5
STR	77	240	1
SCR	77	240	1	96	48	3
TAP	77	336	0
TAP	77	336	1
TAP	78	48	4
TAP	78	96	4
TAP	78	192	6
TAP	78	192	7
STR	78	240	6
SCL	78	240	6	96	48	4
STR	78	240	7
SCR	78	240	7	96	48	2
TAP	78	336	6
TAP	78	336	7
TAP	79	48	3
TAP	79	96	3
STR	79	192	0
SCR	79	192	0	96	48	3
STR	79	192	7
SCL	79	192	7	96	48	4
TAP	79	288	0
TAP	79	288	7
TAP	80	0	1
TAP	80	0	6
TAP	80	96	3
TAP	80	96	4
TAP	80	192	2
TAP	80	192	5
STR	80	288	0
SCL	80	288	0	96	48	5
STR	80	288	7
SCR	80	288	7	96	48	2
TAP	80	336	1
TAP	80	336	6
STR	81	0	0
SI_	81	0	0	96	48	4
STR	81	0	7
SI_	81	0	7	96	48	3
STR	81	96	0
SCR	81	96	0	96	48	3
STR	81	96	7
SCL	81	96	7	96	48	4
TAP	81	192	0
TAP	81	192	7
BRK	81	288	0
BRK	81	288	7
HLD	82	0	1	48
HLD	82	0	6	48
HLD	82	96	1	48
HLD	82	96	2	48
HLD	82	192	1	48
HLD	82	192	6	48
HLD	82	288	5	48
HLD	82	288	6	48
TAP	83	0	1
TAP	83	0	6
STR	83	96	0
SCR	83	96	0	96	48	2
STR	83	96	7
SCL	83	96	7	96	48	5
TAP	83	192	0
TAP	83	192	7
TAP	83	288	3
TAP	83	336	4
TAP	84	0	3
TAP	84	0	5
TAP	84	96	1
TAP	84	96	7
TAP	84	192	2
TAP	84	192	4
STR	84	288	0
SCR	84	288	0	96	48	3
TAP	84	288	6
TAP	84	336	7
STR	85	0	0
SCL	85	0	0	96	48	5
STR	85	96	0
SF_	85	96	0	96	48	4
TAP	85	192	0
TAP	86	0	2
TAP	86	0	6
TAP	86	48	5
TAP	86	72	4
TAP	86	96	5
TAP	86	144	2
TAP	86	144	6
STR	86	192	1
SCR	86	192	1	96	48	3
STR	86	192	7
SCL	86	192	7	96	48	5
TAP	86	288	1
TAP	86	288	7
STR	87	0	4
SXR	87	0	4	96	96	3
STR	87	96	3
SCR	87	96	3	96	96	7
BRK	87	192	0
TAP	88	0	0
TAP	88	0	2
TAP	88	96	5
TAP	88	96	7
TAP	88	192	1
TAP	88	192	6
STR	88	288	0
SCL	88	288	0	96	48	5
STR	88	288	7
SCR	88	288	7	96	48	2
TAP	88	336	1
TAP	88	336	6
STR	89	0	0
SI_	89	0	0	96	48	4
STR	89	0	7
SI_	89	0	7	96	48	3
STR	89	96	0
SCR	89	96	0	96	48	3
STR	89	96	7
SCL	89	96	7	96	48	4
TAP	89	192	0
TAP	89	192	7
BRK	89	288	0
BRK	89	288	7
TAP	90	0	0
TAP	90	0	2
TAP	90	48	1
TAP	90	96	0
TAP	90	96	2
TAP	90	192	4
TAP	90	192	6
TAP	90	240	5
TAP	90	288	4
TAP	90	288	6
TAP	91	0	1
TAP	91	0	7
STR	91	72	0
SF_	91	72	0	96	72	4
TAP	91	144	1
TAP	91	144	7
TAP	91	192	0
STR	92	0	0
SI_	92	0	0	96	48	5
TAP	92	0	1
TAP	92	96	0
STR	92	96	1
SI_	92	96	1	96	48	4
STR	92	192	0
SI_	92	192	0	96	48	5
TAP	92	192	1
TAP	92	288	0
STR	92	288	1
SI_	92	288	1	96	48	4
STR	93	0	0
SI_	93	0	0	96	48	5
TAP	93	0	1
TAP	93	96	0
STR	93	96	1
SCR	93	96	1	96	48	4
BRK	93	192	0
TAP	94	0	6
TAP	94	0	7
TAP	94	48	0
TAP	94	48	5
TAP	94	96	1
TAP	94	96	4
TAP	94	144	0
TAP	94	144	7
TAP	94	192	1
TAP	94	192	6
TAP	94	240	2
TAP	94	240	5
TAP	94	288	0
TAP	94	288	1
TAP	94	336	2
TAP	94	336	7
TAP	95	0	3
TAP	95	0	6
TAP	95	48	3
TAP	95	48	6
BRK	95	96	3
BRK	95	96	6
TAP	95	192	2
TAP	95	192	7
TAP	95	264	1
TAP	95	264	6
TAP	95	336	0
TAP	95	336	5
STR	96	0	4
SCR	96	0	4	96	96	0
STR	96	0	7
SCR	96	0	7	96	96	3
TAP	96	288	0
TAP	96	288	3
STR	97	0	0
SCL	97	0	0	96	96	4
STR	97	0	3
SCL	97	0	3	96	96	7
TAP	97	288	4
TAP	97	288	7
STR	98	0	4
SCR	98	0	4	96	96	0
STR	98	0	7
SCR	98	0	7	96	96	3
TAP	98	288	0
TAP	98	288	3
HLD	99	0	2	96
HLD	99	0	7	96
HLD	99	192	1	96
HLD	99	192	6	96
HLD	100	0	0	288
HLD	100	0	7	288
BRK	100	336	1
BRK	100	336	6
TAP	101	48	0
TAP	101	48	7
TAP	101	96	1
TAP	101	96	6
TAP	101	192	3
TAP	101	192	5
TAP	101	240	4
TAP	101	288	2
TAP	101	288	6
TAP	101	336	4
STR	102	0	1
SI_	102	0	1	96	48	4
STR	102	0	7
SI_	102	0	7	96	48	4
TAP	102	96	1
TAP	102	96	7
TAP	102	192	3
TAP	102	192	5
TAP	102	240	4
TAP	102	288	3
TAP	102	288	5
TAP	102	336	4
STR	103	0	0
SI_	103	0	0	96	48	3
STR	103	0	6
SI_	103	0	6	96	48	3
TAP	103	96	0
TAP	103	96	6
TAP	103	192	2
TAP	103	192	4
TAP	103	240	3
TAP	103	288	2
TAP	103	288	4
TAP	103	336	3
STR	104	0	0
SI_	104	0	0	96	48	5
STR	104	0	1
SI_	104	0	1	96	48	4
TAP	104	96	0
TAP	104	96	1
TAP	104	192	3
TAP	104	192	6
TAP	104	240	4
TAP	104	240	5
TAP	104	288	3
TAP	104	288	6
TAP	104	336	4
TAP	104	336	5
STR	105	0	6
SI_	105	0	6	96	48	3
STR	105	0	7
SI_	105	0	7	96	48	2
TAP	105	96	6
TAP	105	96	7
TAP	105	192	1
TAP	105	192	4
TAP	105	240	2
TAP	105	240	3
TAP	105	288	1
TAP	105	288	4
TAP	105	336	2
TAP	105	336	3
STR	106	0	0
SCR	106	0	0	96	48	3
STR	106	0	1
SCL	106	0	1	96	48	5
TAP	106	192	4
TAP	106	240	3
TAP	106	240	5
TAP	106	288	2
TAP	106	288	6
STR	106	336	1
SI_	106	336	1	96	48	4
TAP	106	336	7
TAP	107	48	1
STR	107	48	6
SI_	107	48	6	96	48	3
STR	107	144	0
SF_	107	144	0	96	48	4
TAP	107	144	6
TAP	108	0	6
TAP	108	0	7
TAP	108	48	0
TAP	108	48	5
TAP	108	96	1
TAP	108	96	4
TAP	108	144	0
TAP	108	144	7
TAP	108	192	1
TAP	108	192	6
TAP	108	240	2
TAP	108	240	5
TAP	108	288	0
TAP	108	288	1
TAP	108	336	2
TAP	108	336	7
TAP	109	0	3
TAP	109	0	6
TAP	109	48	0
TAP	109	48	7
TAP	109	96	1
TAP	109	96	6
TAP	109	144	2
TAP	109	144	5
STR	109	192	0
SCR	109	192	0	96	48	3
STR	109	192	7
SCL	109	192	7	96	48	4
TAP	109	288	0
TAP	109	288	7
HLD	110	0	1	96
HLD	110	0	5	96
HLD	110	144	3	96
HLD	110	144	7	96
STR	110	288	1
SI_	110	288	1	96	48	4
STR	110	288	5
SI_	110	288	5	96	48	0
BRK	111	96	3
BRK	111	96	7
BRK	111	144	1
BRK	111	144	5

T_REC_TAP	579
T_REC_BRK	29
T_REC_XTP	0
T_REC_HLD	45
T_REC_XHO	0
T_REC_STR	142
T_REC_BST	0
T_REC_XST	0
T_REC_TTP	0
T_REC_THO	0
T_REC_SLD	143
T_REC_ALL	938
T_NUM_TAP	721
T_NUM_BRK	29
T_NUM_HLD	45
T_NUM_SLD	143
T_NUM_ALL	938
T_JUDGE_TAP	750
T_JUDGE_HLD	117
T_JUDGE_SLD	143
T_JUDGE_ALL	1010
TTM_EACHPAIRS	283
TTM_SCR_TAP	360500
TTM_SCR_BRK	75400
TTM_SCR_HLD	45000
TTM_SCR_SLD	214500
TTM_SCR_ALL	695400
TTM_SCR_S	671750
TTM_SCR_SS	692500
TTM_RAT_ACV	10041

