VERSION	0.00.00	1.03.00
FES_MODE	0
BPM_DEF	190.000	190.000	190.000	190.000
MET_DEF	4	4
RESOLUTION	384
CLK_DEF	384
COMPATIBLE_CODE	MA2

BPM	0	0	190.000
MET	0	0	4	4

TAP	1	0	1
TAP	1	0	6
TAP	1	96	2
TAP	1	96	5
TAP	1	192	3
TAP	1	192	4
BRK	1	288	0
BRK	1	288	7
TAP	2	0	6
TAP	2	96	6
TAP	2	96	7
TAP	2	192	1
TAP	2	288	0
TAP	2	288	1
TAP	3	0	2
TAP	3	0	5
TAP	3	96	3
TAP	3	96	4
TAP	3	192	1
TAP	3	192	6
TAP	4	0	1
TAP	4	48	0
TAP	4	96	1
TAP	4	192	6
TAP	4	240	7
TAP	4	288	6
TAP	5	0	2
TAP	5	0	3
STR	5	96	2
SI_	5	96	2	96	48	0
STR	5	96	3
SI_	5	96	3	96	48	5
TAP	6	0	1
TAP	6	96	0
TAP	6	96	1
TAP	6	192	6
TAP	6	288	6
TAP	6	288	7
TAP	7	0	0
TAP	7	0	7
TAP	7	96	2
TAP	7	96	5
TAP	7	192	0
TAP	7	192	7
TAP	8	0	6
TAP	8	48	7
TAP	8	96	6
TAP	8	192	1
TAP	8	240	0
TAP	8	288	1
STR	9	0	5
SUR	9	0	5	96	192	0
BRK	10	0	1
BRK	10	0	6
TAP	10	192	3
TAP	10	192	4
TAP	10	288	3
TAP	10	288	4
HLD	11	0	5	288
TAP	11	96	4
TAP	11	192	4
TAP	11	288	4
TAP	12	0	0
TAP	12	48	7
TAP	12	96	0
TAP	12	144	7
TAP	12	192	0
TAP	12	240	7
TAP	12	288	0
STR	12	336	7
SCL	12	336	7	96	240	1
TAP	14	0	0
TAP	14	96	7
TAP	14	192	1
TAP	14	192	6
TAP	14	288	2
TAP	14	288	5
TAP	15	0	4
TAP	15	96	2
TAP	15	96	3
TAP	15	192	1
TAP	15	288	2
TAP	15	288	3
TAP	16	0	4
TAP	16	0	5
TAP	16	96	6
TAP	16	96	7
TAP	16	192	0
TAP	16	192	1
TAP	16	288	2
TAP	16	288	3
TAP	17	0	5
TAP	17	96	4
TAP	17	96	5
TAP	17	192	2
TAP	17	288	2
TAP	17	288	3
TAP	18	0	1
TAP	18	0	4
TAP	18	96	1
TAP	18	96	4
TAP	18	192	4
TAP	18	240	3
TAP	18	288	4
TAP	18	336	3
HLD	19	0	6	288
TAP	19	96	0
HLD	19	144	0	144
HLD	20	0	1	288
TAP	20	96	7
HLD	20	144	7	144
TAP	21	0	3
TAP	21	0	4
TAP	21	96	5
TAP	21	144	5
TAP	21	240	2
STR	21	288	2
SXL	21	288	2	96	192	7
HLD	23	0	4	192
TAP	23	192	3
TAP	23	240	4
TAP	23	288	3
TAP	23	336	4
TAP	24	0	2
TAP	24	96	0
TAP	24	96	1
TAP	24	192	6
TAP	24	192	7
TAP	24	288	4
TAP	24	288	5
TAP	25	0	2
TAP	25	96	2
TAP	25	96	3
TAP	25	192	5
TAP	25	288	4
TAP	25	288	5
TAP	26	0	3
TAP	26	0	6
TAP	26	96	3
TAP	26	96	6
TAP	26	192	3
TAP	26	240	4
TAP	26	288	3
TAP	26	336	4
HLD	27	0	1	288
TAP	27	96	0
TAP	27	144	0
TAP	27	240	7
TAP	27	288	7
HLD	28	0	6	288
TAP	28	96	7
TAP	28	144	7
TAP	28	240	0
TAP	28	288	0
STR	29	0	2
SUR	29	0	2	96	192	5
HLD	30	0	6	96
HLD	30	0	7	96
HLD	30	192	0	96
HLD	30	192	1	96
HLD	31	0	7	96
HLD	31	96	6	96
HLD	31	192	5	96
STR	31	288	4
SXL	31	288	4	96	192	0
HLD	33	0	0	96
HLD	33	96	1	96
HLD	33	192	2	96
STR	33	288	3
SXR	33	288	3	96	192	7
HLD	35	0	7	144
HLD	35	144	1	144
TAP	35	240	3
STR	35	288	3
SI_	35	288	3	96	192	0
SI_	35	288	3	96	192	6
HLD	37	0	0	144
HLD	37	144	6	144
TAP	37	240	4
STR	37	288	4
SI_	37	288	4	96	192	1
SI_	37	288	4	96	192	7
TAP	39	0	0
TAP	39	96	3
TAP	39	96	4
TAP	39	192	7
TAP	39	288	3
TAP	39	288	4
TAP	40	0	1
TAP	40	96	3
TAP	40	96	4
TAP	40	192	6
TAP	40	288	3
TAP	40	288	4
STR	41	0	4
SI_	41	0	4	96	96	0
STR	41	192	3
SI_	41	192	3	96	96	7
STR	42	0	5
SI_	42	0	5	96	96	0
STR	42	192	2
SI_	42	192	2	96	96	7
STR	43	0	6
SCL	43	0	6	96	192	2
STR	44	0	1
SCL	44	0	1	96	192	5
TAP	45	0	3
TAP	45	0	4
TAP	45	96	2
TAP	45	96	5
TAP	45	192	0
TAP	45	192	7
TAP	45	240	0
TAP	45	240	7
BST	45	336	1
SLR	45	336	1	96	144	7
BST	45	336	6
SLL	45	336	6	96	144	0
TAP	47	0	5
TAP	47	96	5
TAP	47	96	7
TAP	47	192	2
TAP	47	288	0
TAP	47	288	2
TAP	48	0	6
TAP	48	0	7
TAP	48	96	0
TAP	48	96	1
TAP	48	192	6
TAP	48	192	7
TAP	49	0	5
TAP	49	48	4
TAP	49	96	5
TAP	49	192	2
TAP	49	240	3
TAP	49	288	2
TAP	50	0	3
TAP	50	0	4
STR	50	96	3
SI_	50	96	3	96	96	0
STR	50	96	4
SI_	50	96	4	96	96	7
TAP	51	0	2
TAP	51	96	0
TAP	51	96	2
TAP	51	192	5
TAP	51	288	5
TAP	51	288	7
TAP	52	0	0
TAP	52	0	1
TAP	52	96	6
TAP	52	96	7
TAP	52	192	0
TAP	52	192	1
TAP	53	0	2
TAP	53	48	3
TAP	53	96	2
TAP	53	192	5
TAP	53	240	4
TAP	53	288	5
STR	54	0	2
SI_	54	0	2	96	96	6
SI_	54	0	2	96	96	7
TAP	55	0	5
TAP	55	96	6
TAP	55	96	7
TAP	55	192	2
TAP	55	288	0
TAP	55	288	1
TAP	56	0	6
TAP	56	0	7
TAP	56	96	0
TAP	56	96	1
TAP	56	192	0
TAP	56	192	7
STR	57	0	0
SV_	57	0	0	96	96	2
STR	57	0	6
SV_	57	0	6	96	96	4
STR	58	0	1
SV_	58	0	1	96	96	3
STR	58	0	7
SV_	58	0	7	96	96	5
TAP	59	0	4
TAP	59	96	4
TAP	59	192	3
TAP	59	288	3
TAP	60	0	5
TAP	60	96	5
TAP	60	192	2
TAP	60	288	2
TAP	61	0	1
TAP	61	0	6
TAP	61	96	0
TAP	61	144	0
TAP	61	240	7
TAP	61	288	7
TAP	62	0	0
TAP	62	0	7
TAP	62	48	0
TAP	62	48	7
STR	62	96	0
SCR	62	96	0	96	192	7
TAP	62	96	7
TAP	63	192	3
TAP	63	192	4
TAP	63	288	3
TAP	63	288	4
HLD	64	0	6	240
HLD	64	144	1	96
TAP	64	288	0
TAP	64	288	7
TAP	65	48	1
TAP	65	144	4
TAP	65	192	4
TAP	65	288	3
TAP	65	336	3
TAP	66	48	6
TAP	66	96	6
BRK	66	192	0
BRK	66	192	7
BRK	66	288	0
BRK	66	288	7
STR	67	0	7
SCL	67	0	7	96	144	4
SCR	67	0	7	96	144	2
STR	68	0	0
SCL	68	0	0	96	144	5
SCR	68	0	0	96	144	3
STR	69	0	4
SCL	69	0	4	96	144	1
STR	69	0	5
SUL	69	0	5	96	144	0
STR	70	0	2
SUR	70	0	2	96	144	7
STR	70	0	3
SCR	70	0	3	96	144	6
TAP	71	0	5
TAP	71	96	4
TAP	71	96	5
TAP	71	192	2
TAP	71	288	2
TAP	71	288	3
TAP	72	0	6
TAP	72	96	4
TAP	72	96	6
TAP	72	192	1
TAP	72	288	1
TAP	72	288	3
HLD	73	0	7	288
TAP	73	96	4
TAP	73	192	2
TAP	73	288	0
HLD	74	0	0	288
TAP	74	96	3
TAP	74	192	5
TAP	74	288	7
HLD	75	0	7	288
TAP	75	96	5
TAP	75	192	3
TAP	75	288	1
HLD	76	0	0	288
TAP	76	96	2
TAP	76	192	4
TAP	76	288	6
TAP	77	0	0
TAP	77	0	7
TAP	77	96	2
TAP	77	96	5
TAP	77	192	3
TAP	77	192	4
STR	77	240	3
SCL	77	240	3	96	144	0
STR	77	240	4
SCR	77	240	4	96	144	7
TAP	78	240	0
TAP	78	240	7
BST	78	336	0
SXL	78	336	0	96	144	1
BST	78	336	7
SXR	78	336	7	96	144	6
TAP	80	0	4
TAP	80	96	3
TAP	80	192	5
TAP	80	288	2
TAP	81	0	0
TAP	81	0	1
TAP	81	96	6
TAP	81	96	7
TAP	81	192	2
TAP	81	192	5
BRK	81	288	0
BRK	81	288	7
TAP	82	0	1
TAP	82	48	0
TAP	82	96	1
TAP	82	192	5
TAP	82	240	4
TAP	82	288	5
TAP	83	0	6
TAP	83	0	7
STR	83	96	0
SCL	83	96	0	96	96	5
STR	83	96	1
SCR	83	96	1	96	96	4
TAP	84	0	3
TAP	84	96	0
TAP	84	96	1
TAP	84	192	4
TAP	84	288	6
TAP	84	288	7
TAP	85	0	1
TAP	85	0	7
TAP	85	96	0
TAP	85	96	6
TAP	85	192	1
TAP	85	192	7
HLD	86	0	2	96
HLD	86	96	3	96
HLD	86	192	4	96
STR	86	288	5
SI_	86	288	5	96	96	0
BRK	87	192	1
BRK	87	192	6
TAP	88	0	1
TAP	88	96	0
TAP	88	96	7
TAP	88	192	6
TAP	88	288	0
TAP	88	288	7
TAP	89	0	2
TAP	89	0	3
TAP	89	96	4
TAP	89	96	5
TAP	89	192	0
TAP	89	192	7
BRK	89	288	1
BRK	89	288	6
TAP	90	0	2
TAP	90	48	3
TAP	90	96	2
TAP	90	192	6
TAP	90	240	7
TAP	90	288	6
STR	91	0	3
SCL	91	0	3	96	96	0
SCR	91	0	3	96	96	6
TAP	92	0	3
TAP	92	0	4
TAP	92	96	3
TAP	92	96	4
TAP	92	192	2
TAP	92	192	5
TAP	92	288	2
TAP	92	288	5
TAP	93	0	1
TAP	93	0	6
TAP	93	96	1
TAP	93	96	6
TAP	93	192	0
TAP	93	192	7
TAP	93	288	0
TAP	93	288	7
TAP	94	0	1
TAP	94	0	6
TAP	94	96	0
TAP	94	144	0
TAP	94	240	7
TAP	94	288	7
TAP	95	0	1
TAP	95	0	6
TAP	95	48	1
TAP	95	48	6
TAP	95	96	1
STR	95	96	6
SUR	95	96	6	96	192	7
HLD	96	0	1	288
TAP	96	192	3
TAP	96	288	3
HLD	97	0	6	288
TAP	97	192	4
TAP	97	288	4
HLD	98	0	0	192
HLD	98	192	7	192
BST	99	0	0
SCR	99	0	0	96	96	3
BST	99	192	7
SCL	99	192	7	96	96	4
BST	100	0	2
SCR	100	0	2	96	288	1
TAP	102	0	4
TAP	102	0	5
TAP	102	96	4
TAP	102	96	5
TAP	102	192	6
TAP	102	240	7
TAP	102	288	6
TAP	103	0	2
TAP	103	0	3
TAP	103	96	2
TAP	103	96	3
TAP	103	192	1
TAP	103	240	0
TAP	103	288	1
TAP	104	0	3
TAP	104	96	4
TAP	104	192	5
TAP	104	288	6
HLD	105	0	7	192
TAP	105	96	0
TAP	105	192	0
HLD	106	0	0	96
HLD	106	0	1	96
TAP	106	192	4
TAP	106	240	3
TAP	106	288	4
TAP	106	336	3
TAP	107	48	6
TAP	107	48	7
TAP	107	144	0
TAP	107	144	1
TAP	107	240	0
TAP	107	240	7
TAP	107	288	0
TAP	107	288	7
TAP	108	0	3
TAP	108	48	4
TAP	108	96	3
HLD	108	144	4	336
TAP	108	240	0
HLD	108	288	0	192
TAP	109	192	4
TAP	109	240	3
TAP	109	288	4
TAP	109	336	3
BRK	110	0	7
BRK	110	144	0
BRK	110	144	6
BRK	110	288	1
BRK	110	288	5
TAP	111	96	0
TAP	111	96	4
TAP	111	144	0
TAP	111	144	4

T_REC_TAP	391
T_REC_BRK	19
T_REC_XTP	0
T_REC_HLD	40
T_REC_XHO	0
T_REC_STR	37
T_REC_BST	7
T_REC_XST	0
T_REC_TTP	0
T_REC_THO	0
T_REC_SLD	50
T_REC_ALL	544
T_NUM_TAP	428
T_NUM_BRK	26
T_NUM_HLD	40
T_NUM_SLD	50
T_NUM_ALL	544
T_JUDGE_TAP	454
T_JUDGE_HLD	148
T_JUDGE_SLD	50
T_JUDGE_ALL	652
TTM_EACHPAIRS	133
TTM_SCR_TAP	214000
TTM_SCR_BRK	67600
TTM_SCR_HLD	40000
TTM_SCR_SLD	75000
TTM_SCR_ALL	396600
TTM_SCR_S	382200
TTM_SCR_SS	394000
TTM_RAT_ACV	10065

