VERSION	0.00.00	1.03.00
FES_MODE	0
BPM_DEF	190.000	190.000	190.000	190.000
MET_DEF	4	4
RESOLUTION	384
CLK_DEF	384
COMPATIBLE_CODE	MA2

BPM	0	0	190.000
MET	0	0	4	4

TAP	1	0	0
TAP	1	96	0
TAP	1	192	7
TAP	1	288	7
TAP	2	0	0
TAP	2	96	1
TAP	2	192	2
TAP	2	288	3
TAP	3	0	4
TAP	3	0	5
TAP	3	96	2
TAP	3	96	3
TAP	3	192	0
TAP	3	192	1
TAP	4	0	6
TAP	4	96	6
TAP	4	96	7
TAP	4	192	1
TAP	4	288	0
TAP	4	288	1
TAP	5	0	7
TAP	5	96	0
TAP	5	192	1
TAP	5	192	6
TAP	6	0	7
TAP	6	96	6
TAP	6	192	5
TAP	6	288	4
TAP	7	0	2
TAP	7	0	3
TAP	7	96	4
TAP	7	96	5
TAP	7	192	6
TAP	7	192	7
TAP	8	0	1
TAP	8	96	0
TAP	8	96	1
TAP	8	192	6
TAP	8	288	6
TAP	8	288	7
HLD	9	0	0	288
HLD	9	192	7	96
BRK	10	0	1
BRK	10	0	6
TAP	10	96	1
TAP	10	96	6
TAP	10	288	2
TAP	10	288	5
TAP	11	96	3
TAP	11	96	4
TAP	11	288	4
TAP	11	288	6
TAP	12	96	3
TAP	12	96	4
TAP	12	288	1
TAP	12	288	3
TAP	13	0	4
TAP	13	96	5
TAP	13	192	6
TAP	13	288	0
TAP	13	288	7
TAP	14	0	1
TAP	14	96	2
TAP	14	192	3
TAP	14	192	4
TAP	15	0	3
TAP	15	96	3
TAP	15	192	4
TAP	15	288	4
TAP	16	0	3
TAP	16	96	2
TAP	16	192	0
TAP	16	192	1
TAP	17	0	4
TAP	17	96	4
TAP	17	192	3
TAP	17	288	3
TAP	18	0	4
TAP	18	96	5
TAP	18	192	6
TAP	18	192	7
STR	19	0	0
SI_	19	0	0	96	144	4
STR	19	0	1
SI_	19	0	1	96	144	3
STR	20	0	3
SI_	20	0	3	96	144	7
STR	20	0	4
SI_	20	0	4	96	144	6
TAP	21	0	0
TAP	21	96	1
TAP	21	192	7
STR	21	288	6
SCL	21	288	6	96	288	1
TAP	23	0	0
TAP	23	96	0
TAP	23	192	7
TAP	23	288	7
TAP	24	0	0
TAP	24	96	1
TAP	24	192	2
TAP	24	192	3
TAP	25	0	7
TAP	25	96	7
TAP	25	192	0
TAP	25	288	0
TAP	26	0	7
TAP	26	96	6
TAP	26	192	4
TAP	26	192	5
TAP	27	0	3
TAP	27	96	3
TAP	27	192	1
TAP	27	192	5
TAP	28	0	4
TAP	28	96	4
TAP	28	192	2
TAP	28	192	6
TAP	29	0	1
TAP	29	0	3
TAP	29	192	4
TAP	29	192	6
TAP	30	0	0
TAP	30	0	1
TAP	30	192	6
TAP	30	192	7
BRK	31	0	0
TAP	31	96	7
TAP	31	192	6
TAP	31	288	5
TAP	32	0	4
TAP	32	96	3
TAP	32	192	5
TAP	32	288	4
TAP	32	288	6
TAP	33	0	7
TAP	33	96	0
TAP	33	192	1
TAP	33	288	2
TAP	34	0	3
TAP	34	96	4
TAP	34	192	2
TAP	34	288	1
TAP	34	288	3
STR	35	0	0
SCR	35	0	0	96	264	4
TAP	36	96	4
TAP	36	192	5
TAP	36	288	6
STR	37	0	7
SCL	37	0	7	96	264	3
TAP	38	96	3
TAP	38	192	2
TAP	38	288	1
TAP	39	0	0
TAP	39	96	0
TAP	39	192	7
TAP	39	288	7
TAP	40	0	1
TAP	40	96	1
TAP	40	192	6
TAP	40	288	6
HLD	41	0	2	192
HLD	41	192	3	192
HLD	42	0	4	192
HLD	42	192	5	192
STR	43	0	6
SXL	43	0	6	96	480	1
TAP	45	0	3
TAP	45	0	4
TAP	45	96	2
TAP	45	96	5
TAP	45	192	1
TAP	45	192	6
TAP	45	240	1
TAP	45	240	6
STR	45	336	0
SCR	45	336	0	96	144	3
STR	45	336	7
SCL	45	336	7	96	144	4
TAP	47	0	2
TAP	47	96	1
TAP	47	96	3
TAP	47	192	5
TAP	47	288	4
TAP	47	288	6
TAP	48	0	2
TAP	48	0	3
TAP	48	96	0
TAP	48	96	1
TAP	48	192	6
TAP	48	192	7
TAP	49	0	1
TAP	49	96	2
TAP	49	96	7
TAP	49	192	6
TAP	49	288	0
TAP	49	288	5
TAP	50	0	1
TAP	50	0	6
TAP	50	96	1
TAP	50	96	6
TAP	50	192	0
TAP	50	192	7
TAP	51	0	1
TAP	51	96	4
TAP	51	192	3
TAP	51	288	6
TAP	52	0	0
TAP	52	96	7
TAP	52	192	1
TAP	52	192	6
TAP	53	0	2
TAP	53	96	7
TAP	53	192	0
TAP	53	288	5
TAP	54	0	0
TAP	54	0	7
STR	54	96	0
SI_	54	96	0	96	72	3
STR	54	96	7
SI_	54	96	7	96	72	4
TAP	55	0	5
TAP	55	96	4
TAP	55	96	6
TAP	55	192	2
TAP	55	288	1
TAP	55	288	3
TAP	56	0	4
TAP	56	0	5
TAP	56	96	6
TAP	56	96	7
TAP	56	192	0
TAP	56	192	1
TAP	57	0	6
TAP	57	96	0
TAP	57	96	5
TAP	57	192	1
TAP	57	288	2
TAP	57	288	7
TAP	58	0	1
TAP	58	0	6
TAP	58	96	1
TAP	58	96	6
TAP	58	192	0
TAP	58	192	7
HLD	59	0	1	192
HLD	59	192	0	192
HLD	60	0	7	192
TAP	60	192	6
TAP	61	0	2
TAP	61	0	5
TAP	61	96	2
TAP	61	96	5
TAP	61	192	1
TAP	61	192	6
TAP	61	288	1
TAP	61	288	6
TAP	62	0	0
TAP	62	0	7
TAP	62	48	0
TAP	62	48	7
TAP	62	96	0
TAP	62	96	7
TAP	63	0	1
TAP	63	0	3
TAP	63	96	2
TAP	63	192	4
TAP	63	192	6
TAP	63	288	5
BRK	64	0	0
BRK	64	0	7
STR	65	48	2
SXL	65	48	2	96	480	5
TAP	67	0	6
TAP	67	192	5
TAP	68	0	4
TAP	68	192	2
TAP	68	192	3
TAP	69	0	1
TAP	69	192	2
TAP	70	0	3
TAP	70	192	4
TAP	70	192	5
TAP	71	0	6
TAP	71	96	6
TAP	71	192	7
TAP	71	288	7
TAP	72	0	0
TAP	72	96	0
TAP	72	192	1
TAP	72	192	6
TAP	73	0	2
TAP	73	96	2
TAP	73	192	3
TAP	73	288	3
TAP	74	0	4
TAP	74	96	4
TAP	74	192	5
TAP	74	288	5
TAP	75	0	6
TAP	75	96	7
TAP	75	192	0
TAP	75	288	1
TAP	76	0	2
TAP	76	96	3
TAP	76	192	4
TAP	76	192	5
TAP	76	288	2
TAP	76	288	3
TAP	77	0	4
TAP	77	96	3
STR	77	192	3
SCL	77	192	3	96	192	0
STR	77	192	4
SCR	77	192	4	96	192	7
STR	78	240	0
SI_	78	240	0	96	144	3
STR	78	240	7
SI_	78	240	7	96	144	4
TAP	79	192	3
STR	79	288	4
SCR	79	288	4	96	288	3
TAP	81	0	1
TAP	81	0	4
TAP	81	96	3
TAP	81	96	6
BRK	81	192	2
BRK	81	192	5
BRK	81	288	0
BRK	81	288	7
TAP	82	0	1
TAP	82	48	1
TAP	82	96	7
TAP	82	192	6
TAP	82	240	6
TAP	82	288	0
TAP	83	0	1
TAP	83	0	7
TAP	83	96	3
TAP	83	96	4
TAP	83	192	0
TAP	83	192	6
TAP	84	0	1
TAP	84	96	4
TAP	84	192	3
TAP	84	288	6
TAP	85	0	0
TAP	85	0	7
TAP	85	96	0
TAP	85	96	7
TAP	85	192	1
TAP	85	192	6
HLD	86	0	2	96
HLD	86	0	3	96
HLD	86	192	4	96
HLD	86	192	5	96
TAP	87	0	3
TAP	87	0	4
TAP	87	96	2
TAP	87	96	5
TAP	87	192	1
TAP	87	192	6
TAP	87	288	0
TAP	87	288	7
TAP	88	0	6
TAP	88	96	0
TAP	88	96	5
TAP	88	192	1
TAP	88	288	2
TAP	88	288	7
TAP	89	0	1
TAP	89	0	6
TAP	89	96	3
TAP	89	96	4
TAP	89	192	1
TAP	89	192	6
BRK	89	288	0
BRK	89	288	7
TAP	90	0	6
TAP	90	48	6
TAP	90	96	0
TAP	90	192	1
TAP	90	240	1
TAP	90	288	7
TAP	91	0	0
TAP	91	0	6
TAP	91	96	3
TAP	91	96	4
TAP	91	192	1
TAP	91	192	7
HLD	92	0	6	192
HLD	92	192	7	192
HLD	93	0	0	192
TAP	93	192	1
TAP	94	0	3
TAP	94	0	4
TAP	94	96	2
TAP	94	96	5
TAP	94	192	1
TAP	94	192	6
TAP	94	288	0
TAP	94	288	7
TAP	95	0	0
TAP	95	0	7
TAP	95	48	0
TAP	95	48	7
STR	95	96	0
SCR	95	96	0	96	120	3
STR	95	96	7
SCL	95	96	7	96	120	4
HLD	96	0	2	192
TAP	96	192	3
TAP	97	0	4
TAP	97	96	3
TAP	97	192	2
TAP	97	192	5
HLD	98	0	5	192
TAP	98	192	4
HLD	99	0	2	192
HLD	99	192	3	192
STR	100	0	4
SCR	100	0	4	96	528	3
TAP	102	0	2
TAP	102	96	2
TAP	102	192	1
TAP	102	288	1
TAP	103	0	0
TAP	103	96	0
TAP	103	192	7
TAP	103	288	0
TAP	104	0	5
TAP	104	96	5
TAP	104	192	6
TAP	104	288	6
TAP	105	0	7
TAP	105	96	7
TAP	105	192	0
TAP	105	288	7
TAP	106	0	1
TAP	106	0	6
STR	106	192	2
SCL	106	192	2	96	288	5
TAP	107	288	0
TAP	107	288	7
TAP	108	0	1
TAP	108	96	2
TAP	108	192	4
TAP	108	288	3
TAP	109	0	6
TAP	109	96	5
TAP	109	192	3
TAP	109	288	4
TAP	110	0	2
TAP	110	96	1
TAP	110	96	4
TAP	110	192	5
TAP	110	288	3
TAP	110	288	6
TAP	111	0	2
TAP	111	0	5
TAP	111	96	0
TAP	111	96	7
TAP	111	144	0
TAP	111	144	7

T_REC_TAP	390
T_REC_BRK	11
T_REC_XTP	0
T_REC_HLD	20
T_REC_XHO	0
T_REC_STR	22
T_REC_BST	0
T_REC_XST	0
T_REC_TTP	0
T_REC_THO	0
T_REC_SLD	22
T_REC_ALL	465
T_NUM_TAP	412
T_NUM_BRK	11
T_NUM_HLD	20
T_NUM_SLD	22
T_NUM_ALL	465
T_JUDGE_TAP	423
T_JUDGE_HLD	72
T_JUDGE_SLD	22
T_JUDGE_ALL	517
TTM_EACHPAIRS	119
TTM_SCR_TAP	206000
TTM_SCR_BRK	28600
TTM_SCR_HLD	20000
TTM_SCR_SLD	33000
TTM_SCR_ALL	287600
TTM_SCR_S	277950
TTM_SCR_SS	286500
TTM_RAT_ACV	10038

