VERSION	0.00.00	1.03.00
FES_MODE	0
BPM_DEF	190.000	190.000	190.000	190.000
MET_DEF	4	4
RESOLUTION	384
CLK_DEF	384
COMPATIBLE_CODE	MA2

BPM	0	0	190.000
MET	0	0	4	4

TAP	2	0	0
TAP	2	192	0
TAP	3	0	0
TAP	3	96	0
TAP	3	192	0
TAP	4	0	7
TAP	4	192	7
TAP	5	0	7
TAP	5	96	7
TAP	5	192	7
TAP	6	0	1
TAP	6	192	1
TAP	7	0	1
TAP	7	96	1
TAP	7	192	1
TAP	8	0	6
TAP	8	192	6
HLD	9	0	6	192
STR	10	0	6
SI_	10	0	6	96	288	3
STR	12	0	1
SI_	12	0	1	96	288	4
TAP	14	0	3
TAP	14	0	4
TAP	15	0	4
TAP	15	192	4
TAP	16	0	4
TAP	17	0	5
TAP	17	192	5
TAP	18	0	4
TAP	18	0	5
TAP	19	0	6
TAP	19	192	6
TAP	20	0	6
TAP	21	0	7
TAP	21	192	7
TAP	22	0	0
TAP	22	0	7
TAP	23	0	0
TAP	23	192	0
TAP	24	0	0
TAP	25	0	1
TAP	25	192	1
TAP	26	0	0
TAP	26	0	1
TAP	27	0	2
TAP	27	192	2
TAP	28	0	2
TAP	29	0	3
TAP	29	192	3
TAP	30	0	4
TAP	30	192	4
TAP	31	0	2
TAP	31	0	5
TAP	31	192	5
TAP	32	0	4
TAP	32	96	4
TAP	32	192	4
TAP	33	0	2
TAP	33	192	2
TAP	34	0	3
TAP	34	96	3
TAP	34	192	3
HLD	35	0	5	384
TAP	36	192	4
TAP	36	192	5
HLD	37	0	6	384
TAP	38	192	6
TAP	38	192	7
TAP	39	0	7
TAP	39	192	7
TAP	40	0	0
TAP	40	192	0
TAP	41	0	1
TAP	41	96	1
TAP	41	192	1
TAP	42	0	2
TAP	42	96	2
TAP	42	192	2
STR	43	0	3
SI_	43	0	3	96	288	7
STR	45	0	4
SI_	45	0	4	96	288	0
TAP	47	0	7
TAP	47	96	7
TAP	47	192	7
TAP	48	0	6
TAP	48	96	6
TAP	48	192	6
TAP	49	0	5
TAP	49	96	5
TAP	49	192	5
TAP	50	0	4
TAP	50	96	4
TAP	50	192	4
TAP	51	0	3
TAP	51	96	3
TAP	51	192	3
TAP	52	0	2
TAP	52	96	2
TAP	52	192	2
TAP	53	0	1
TAP	53	96	1
TAP	53	192	1
HLD	54	0	0	192
TAP	55	0	0
TAP	55	96	0
TAP	55	192	0
TAP	56	0	1
TAP	56	96	1
TAP	56	192	1
TAP	57	0	2
TAP	57	96	2
TAP	57	192	2
TAP	58	0	3
TAP	58	96	3
TAP	58	192	3
HLD	59	0	4	192
HLD	60	0	3	192
TAP	61	0	3
TAP	61	0	4
TAP	61	192	3
TAP	61	192	4
BRK	62	0	2
BRK	62	0	5
TAP	63	0	6
TAP	63	192	6
TAP	64	0	0
TAP	64	0	7
STR	65	0	0
SI_	65	0	0	96	288	4
TAP	67	0	5
TAP	68	0	4
TAP	68	0	5
TAP	69	0	2
TAP	70	0	2
TAP	70	0	3
TAP	71	0	5
TAP	71	192	5
TAP	72	0	4
TAP	72	0	6
TAP	73	0	2
TAP	73	192	2
TAP	74	0	1
TAP	74	0	3
TAP	75	0	4
TAP	75	192	4
TAP	76	0	5
TAP	76	192	5
TAP	77	0	6
TAP	77	192	6
TAP	78	0	0
TAP	78	0	7
HLD	79	0	1	192
HLD	79	0	6	192
BRK	80	0	0
BRK	80	0	7
TAP	81	0	1
TAP	81	96	1
TAP	81	192	1
TAP	82	0	2
TAP	82	96	2
TAP	82	192	2
TAP	82	288	2
TAP	83	0	3
TAP	83	96	3
TAP	83	192	3
TAP	84	0	4
TAP	84	96	4
TAP	84	192	4
TAP	84	288	4
TAP	85	0	5
TAP	85	96	5
TAP	85	192	5
TAP	86	0	6
TAP	86	96	6
TAP	86	192	6
TAP	86	288	6
HLD	87	0	7	192
TAP	88	0	7
TAP	88	96	7
TAP	88	192	7
TAP	88	288	7
TAP	89	0	6
TAP	89	96	6
TAP	89	192	6
TAP	90	0	5
TAP	90	96	5
TAP	90	192	5
TAP	90	288	5
TAP	91	0	4
TAP	91	96	4
TAP	91	192	4
HLD	92	0	3	192
HLD	93	0	4	192
TAP	94	0	2
TAP	94	0	5
TAP	94	192	1
TAP	94	192	6
BRK	95	0	0
BRK	95	0	7
STR	96	0	0
SI_	96	0	0	96	288	3
STR	98	0	7
SI_	98	0	7	96	288	4
HLD	100	0	0	384
TAP	102	0	0
TAP	102	96	0
TAP	102	192	0
TAP	103	0	1
TAP	103	96	1
TAP	103	192	1
TAP	104	0	2
TAP	104	96	2
TAP	104	192	2
TAP	105	0	3
TAP	105	96	4
TAP	105	192	3
TAP	105	192	4
TAP	106	0	4
TAP	106	96	4
TAP	106	192	4
TAP	107	0	5
TAP	107	96	5
TAP	107	192	5
TAP	108	0	6
TAP	108	96	6
TAP	108	192	6
TAP	109	0	7
TAP	109	96	0
TAP	109	192	0
TAP	109	192	7
HLD	110	0	1	480
HLD	110	0	6	480

T_REC_TAP	200
T_REC_BRK	6
T_REC_XTP	0
T_REC_HLD	14
T_REC_XHO	0
T_REC_STR	7
T_REC_BST	0
T_REC_XST	0
T_REC_TTP	0
T_REC_THO	0
T_REC_SLD	7
T_REC_ALL	234
T_NUM_TAP	207
T_NUM_BRK	6
T_NUM_HLD	14
T_NUM_SLD	7
T_NUM_ALL	234
T_JUDGE_TAP	213
T_JUDGE_HLD	80
T_JUDGE_SLD	7
T_JUDGE_ALL	300
TTM_EACHPAIRS	24
TTM_SCR_TAP	103500
TTM_SCR_BRK	15600
TTM_SCR_HLD	14000
TTM_SCR_SLD	10500
TTM_SCR_ALL	143600
TTM_SCR_S	138750
TTM_SCR_SS	143000
TTM_RAT_ACV	10041

