VERSION	0.00.00	1.03.00
FES_MODE	0
BPM_DEF	140.000	140.000	140.000	 35.000
MET_DEF	4	4
RESOLUTION	384
CLK_DEF	384
COMPATIBLE_CODE	MA2

BPM	0	0	140.000
BPM	13	144	 70.000
BPM	14	48	140.000
BPM	14	240	 70.000
BPM	15	144	140.000
BPM	16	48	 70.000
BPM	16	336	140.000
BPM	48	0	 35.000
BPM	48	192	 70.000
BPM	51	192	140.000
MET	0	0	4	4
MET	1	0	4	7
MET	2	288	4	6
MET	4	96	4	4
MET	11	96	4	3
MET	12	288	16	10
MET	13	144	4	3
MET	14	48	4	2
MET	14	240	4	3
MET	16	336	8	3
MET	17	240	4	7
MET	22	336	4	4
MET	31	336	4	3
MET	32	240	8	5
MET	33	96	4	3
MET	34	0	8	5
MET	34	240	4	3
MET	35	144	8	5
MET	36	0	4	4
MET	48	0	4	2
MET	48	192	4	4

TAP	1	0	5
TAP	1	24	5
TAP	1	48	4
TAP	1	72	4
TAP	1	96	3
TAP	1	120	3
TAP	1	144	2
TAP	1	168	2
TAP	1	192	3
TAP	1	216	3
TAP	1	240	4
TAP	1	264	4
TAP	1	288	5
TAP	1	312	5
TAP	1	336	4
TAP	1	360	4
TAP	2	0	3
TAP	2	24	3
TAP	2	48	2
TAP	2	72	2
TAP	2	96	3
TAP	2	120	3
TAP	2	144	4
TAP	2	168	3
TAP	2	168	4
TAP	2	240	3
TAP	2	240	4
TAP	2	288	2
TAP	2	312	2
TAP	2	336	3
TAP	2	360	3
TAP	3	0	4
TAP	3	24	4
TAP	3	48	5
TAP	3	72	5
TAP	3	96	4
TAP	3	120	4
TAP	3	144	3
TAP	3	168	3
TAP	3	192	2
TAP	3	216	2
TAP	3	240	3
TAP	3	264	3
TAP	3	288	4
TAP	3	312	4
TAP	3	336	5
TAP	3	360	5
TAP	4	0	4
TAP	4	24	4
TAP	4	48	3
TAP	4	72	3
TAP	4	72	4
TAP	4	144	3
TAP	4	144	4
TAP	4	216	3
TAP	4	216	6
TAP	4	264	4
TAP	4	264	5
TAP	4	336	1
TAP	4	336	4
TAP	5	0	2
TAP	5	0	3
TAP	5	24	2
TAP	5	24	3
TAP	5	72	2
TAP	5	72	5
TAP	5	120	5
TAP	5	144	4
TAP	5	168	6
TAP	5	192	3
TAP	5	216	7
TAP	5	240	2
TAP	5	264	3
TAP	5	264	4
TAP	5	312	2
TAP	5	336	3
TAP	5	360	1
TAP	6	0	4
TAP	6	24	0
TAP	6	48	5
TAP	6	72	3
TAP	6	72	4
TAP	6	120	5
TAP	6	144	4
TAP	6	168	6
TAP	6	192	3
TAP	6	216	7
TAP	6	240	2
TAP	6	264	2
TAP	6	312	2
TAP	6	312	3
TAP	6	360	4
TAP	6	360	5
TAP	7	24	3
TAP	7	24	4
TAP	7	48	2
TAP	7	48	5
TAP	7	96	2
TAP	7	96	5
TAP	7	144	2
TAP	7	168	2
TAP	7	192	3
TAP	7	216	1
TAP	7	240	4
TAP	7	264	3
TAP	7	264	4
TAP	7	312	5
TAP	7	336	4
TAP	7	360	6
TAP	8	0	3
TAP	8	24	7
TAP	8	48	2
TAP	8	72	3
TAP	8	72	4
TAP	8	120	2
TAP	8	144	3
TAP	8	168	1
TAP	8	192	4
TAP	8	216	0
TAP	8	240	5
TAP	8	264	5
TAP	8	312	4
TAP	8	312	5
TAP	8	360	2
TAP	8	360	3
TAP	9	24	3
TAP	9	24	4
TAP	9	48	2
TAP	9	48	5
TAP	9	96	2
TAP	9	96	5
TAP	9	144	5
TAP	9	168	5
TAP	9	192	4
TAP	9	216	6
TAP	9	240	3
TAP	9	264	3
TAP	9	264	4
TAP	9	312	2
TAP	9	336	3
TAP	9	360	1
TAP	10	0	4
TAP	10	24	0
TAP	10	48	5
TAP	10	72	3
TAP	10	72	4
TAP	10	120	5
TAP	10	144	4
TAP	10	168	6
TAP	10	192	3
TAP	10	216	7
TAP	10	240	2
TAP	10	264	2
TAP	10	312	2
TAP	10	312	3
TAP	10	360	4
TAP	10	360	5
TAP	11	24	3
TAP	11	24	4
TAP	11	48	2
TAP	11	48	5
HLD	11	96	6	48
HLD	11	96	7	48
TAP	11	168	0
TAP	11	168	5
HLD	11	240	2	48
HLD	11	240	3	48
TAP	11	312	1
TAP	11	312	4
HLD	12	0	0	48
HLD	12	0	1	48
TAP	12	72	2
TAP	12	72	7
HLD	12	144	4	48
HLD	12	144	5	48
TAP	12	216	3
TAP	12	216	6
TAP	12	288	6
TAP	12	288	7
TAP	12	328	0
TAP	12	328	5
TAP	12	368	1
TAP	12	368	4
TAP	13	24	0
TAP	13	24	1
TAP	13	64	2
TAP	13	64	7
TAP	13	104	3
TAP	13	104	6
TAP	13	144	3
TAP	13	160	4
TAP	13	176	3
TAP	13	192	5
TAP	13	208	2
TAP	13	224	5
TAP	13	240	3
TAP	13	256	4
TAP	13	272	3
TAP	13	288	5
TAP	13	304	2
TAP	13	320	5
TAP	13	336	3
TAP	13	352	4
TAP	13	368	3
TAP	14	0	5
TAP	14	16	2
TAP	14	32	4
TAP	14	48	2
TAP	14	48	5
TAP	14	144	3
TAP	14	144	4
TAP	14	240	5
TAP	14	256	4
TAP	14	272	5
TAP	14	288	3
TAP	14	304	6
TAP	14	320	3
TAP	14	336	5
TAP	14	352	4
TAP	14	368	5
TAP	15	0	3
TAP	15	16	6
TAP	15	32	3
TAP	15	48	5
TAP	15	64	4
TAP	15	80	5
TAP	15	96	3
TAP	15	112	6
TAP	15	128	4
TAP	15	144	3
TAP	15	144	6
TAP	15	216	2
TAP	15	216	3
TAP	15	288	1
TAP	15	288	4
TAP	15	360	4
TAP	15	360	5
TAP	16	48	2
TAP	16	64	3
TAP	16	80	2
TAP	16	96	4
TAP	16	112	1
TAP	16	128	4
TAP	16	144	2
TAP	16	160	3
TAP	16	176	2
TAP	16	192	4
TAP	16	208	1
TAP	16	224	4
TAP	16	240	2
TAP	16	256	3
TAP	16	272	2
TAP	16	288	4
TAP	16	304	1
TAP	16	320	3
TAP	16	336	1
TAP	16	336	4
TAP	16	360	1
TAP	16	360	4
TAP	17	24	4
TAP	17	24	5
TAP	17	48	4
TAP	17	48	5
TAP	17	96	3
TAP	17	96	6
TAP	17	144	2
TAP	17	144	3
TAP	17	168	2
TAP	17	168	3
TAP	17	240	2
TAP	17	264	3
TAP	17	288	2
TAP	17	312	3
TAP	17	336	1
TAP	17	360	4
TAP	18	0	1
TAP	18	24	4
TAP	18	48	1
TAP	18	72	3
TAP	18	96	1
TAP	18	120	3
TAP	18	144	2
TAP	18	168	4
TAP	18	192	2
TAP	18	216	2
TAP	18	264	4
TAP	18	288	2
TAP	18	312	4
TAP	18	336	2
TAP	18	360	3
TAP	19	0	2
TAP	19	24	2
TAP	19	72	5
TAP	19	96	4
TAP	19	120	5
TAP	19	144	4
TAP	19	168	6
TAP	19	192	3
TAP	19	216	6
TAP	19	240	3
TAP	19	264	6
TAP	19	288	4
TAP	19	312	6
TAP	19	336	4
TAP	19	360	5
TAP	20	0	3
TAP	20	24	5
TAP	20	48	3
TAP	20	72	4
TAP	20	96	3
TAP	20	120	4
TAP	20	144	3
TAP	20	168	5
TAP	20	192	4
TAP	20	216	5
TAP	20	240	4
TAP	20	264	6
TAP	20	288	3
TAP	20	312	3
TAP	20	360	2
TAP	21	0	3
TAP	21	24	2
TAP	21	48	4
TAP	21	72	2
TAP	21	96	4
TAP	21	120	2
TAP	21	144	4
TAP	21	168	1
TAP	21	192	3
TAP	21	216	1
TAP	21	240	3
TAP	21	264	2
TAP	21	288	3
TAP	21	312	2
TAP	21	336	3
TAP	21	360	1
TAP	22	0	4
TAP	22	24	4
TAP	22	72	5
TAP	22	96	4
TAP	22	120	5
TAP	22	144	3
TAP	22	168	6
TAP	22	192	3
TAP	22	216	3
TAP	22	264	2
TAP	22	288	3
TAP	22	312	2
TAP	22	336	4
TAP	22	360	3
TAP	23	24	3
TAP	23	24	4
TAP	23	72	5
STR	23	96	2
SCR	23	96	2	96	72	5
TAP	23	120	3
TAP	23	168	3
HLD	23	336	6	72
TAP	24	0	7
TAP	24	24	7
TAP	24	72	0
TAP	24	72	5
HLD	24	144	1	72
TAP	24	216	0
TAP	24	264	2
TAP	24	264	7
HLD	24	336	5	72
TAP	25	0	4
TAP	25	24	4
TAP	25	72	2
TAP	25	96	2
TAP	25	120	3
TAP	25	144	1
TAP	25	168	2
TAP	25	216	5
TAP	25	264	4
TAP	25	264	5
HLD	25	336	2	72
TAP	26	0	3
TAP	26	24	3
TAP	26	72	1
TAP	26	72	4
TAP	26	120	3
TAP	26	120	6
TAP	26	144	3
TAP	26	144	6
TAP	26	216	0
TAP	26	216	7
TAP	26	288	5
TAP	26	312	5
TAP	26	336	4
TAP	26	360	6
TAP	27	0	4
TAP	27	24	5
TAP	27	72	2
TAP	27	96	2
TAP	27	120	3
TAP	27	144	1
TAP	27	168	3
TAP	27	192	1
TAP	27	216	2
TAP	27	264	3
TAP	27	264	4
HLD	27	336	1	72
TAP	28	0	0
TAP	28	24	0
TAP	28	72	2
TAP	28	72	7
HLD	28	144	6	72
TAP	28	216	7
TAP	28	264	0
TAP	28	264	5
HLD	28	336	2	72
TAP	29	0	3
TAP	29	24	3
TAP	29	96	5
TAP	29	120	4
TAP	29	144	6
TAP	29	168	4
TAP	29	192	5
TAP	29	216	5
TAP	29	264	3
TAP	29	264	4
TAP	29	312	2
TAP	29	336	2
TAP	29	360	3
TAP	30	0	2
TAP	30	24	5
TAP	30	48	5
TAP	30	72	4
TAP	30	96	5
TAP	30	120	2
TAP	30	144	2
TAP	30	168	4
TAP	30	192	3
TAP	30	216	4
TAP	30	288	5
TAP	30	312	5
TAP	30	336	4
TAP	30	360	5
TAP	31	0	2
TAP	31	24	4
TAP	31	48	3
TAP	31	72	4
TAP	31	96	3
TAP	31	144	3
TAP	31	144	4
TAP	31	168	3
TAP	31	168	4
TAP	31	216	0
TAP	31	216	7
TAP	31	264	1
TAP	31	264	6
TAP	31	288	1
TAP	31	288	6
TAP	31	336	1
TAP	31	336	4
TAP	32	24	3
STR	32	24	6
SI_	32	24	6	96	48	1
TAP	32	240	1
TAP	32	240	4
STR	32	264	2
SI_	32	264	2	96	48	5
TAP	32	264	3
TAP	33	96	3
TAP	33	96	6
STR	33	168	1
SI_	33	168	1	96	48	6
TAP	33	168	4
TAP	34	0	3
TAP	34	0	6
TAP	34	24	4
STR	34	24	5
SI_	34	24	5	96	48	2
TAP	34	240	0
TAP	34	240	5
STR	34	312	2
SI_	34	312	2	96	48	7
TAP	34	312	7
TAP	35	144	2
TAP	35	144	7
STR	35	168	0
SI_	35	168	0	96	48	5
TAP	35	168	1
TAP	36	0	3
TAP	36	0	4
TAP	36	24	3
TAP	36	24	4
TAP	36	72	3
TAP	36	72	6
TAP	36	120	1
TAP	36	120	4
TAP	36	168	3
TAP	36	168	6
TAP	36	216	1
TAP	36	216	4
TAP	36	240	1
TAP	36	240	4
TAP	36	288	3
TAP	36	312	4
TAP	36	336	3
TAP	36	360	2
TAP	36	360	5
TAP	37	24	2
TAP	37	48	3
TAP	37	72	1
TAP	37	96	4
TAP	37	120	0
TAP	37	144	5
TAP	37	168	3
TAP	37	168	4
TAP	37	216	5
TAP	37	240	4
TAP	37	264	6
TAP	37	288	3
TAP	37	312	7
TAP	37	336	2
TAP	37	360	3
TAP	37	360	4
TAP	38	24	2
TAP	38	48	3
TAP	38	72	1
TAP	38	96	4
TAP	38	120	0
TAP	38	144	5
TAP	38	168	5
TAP	38	216	4
TAP	38	216	5
TAP	38	264	2
TAP	38	264	3
TAP	38	312	3
TAP	38	312	4
TAP	38	336	2
TAP	38	336	5
TAP	39	0	2
TAP	39	0	5
TAP	39	48	5
TAP	39	72	5
TAP	39	96	4
TAP	39	120	6
TAP	39	144	3
TAP	39	168	3
TAP	39	168	4
TAP	39	216	2
TAP	39	240	3
TAP	39	264	1
TAP	39	288	4
TAP	39	312	0
TAP	39	336	5
TAP	39	360	3
TAP	39	360	4
TAP	40	24	5
TAP	40	48	4
TAP	40	72	6
TAP	40	96	3
TAP	40	120	7
TAP	40	144	2
TAP	40	168	2
TAP	40	216	2
TAP	40	216	3
TAP	40	264	4
TAP	40	264	5
TAP	40	312	3
TAP	40	312	4
TAP	40	336	2
TAP	40	336	5
TAP	41	0	2
TAP	41	0	5
TAP	41	48	2
TAP	41	72	2
TAP	41	96	3
TAP	41	120	1
TAP	41	144	4
TAP	41	168	3
TAP	41	168	4
TAP	41	216	5
TAP	41	240	4
TAP	41	264	6
TAP	41	288	3
TAP	41	312	7
TAP	41	336	2
TAP	41	360	3
TAP	41	360	4
TAP	42	24	2
TAP	42	48	3
TAP	42	72	1
TAP	42	96	4
TAP	42	120	0
TAP	42	144	5
TAP	42	168	5
TAP	42	216	4
TAP	42	216	5
TAP	42	264	2
TAP	42	264	3
TAP	42	312	3
TAP	42	312	4
TAP	42	336	2
TAP	42	336	5
TAP	43	0	0
TAP	43	0	5
TAP	43	48	4
TAP	43	72	3
TAP	43	120	3
STR	43	168	2
SCR	43	168	2	96	48	5
TAP	43	168	7
TAP	43	240	2
TAP	43	240	7
STR	43	360	0
SXL	43	360	0	96	48	2
STR	43	360	7
SXR	43	360	7	96	48	5
TAP	44	24	1
TAP	44	24	6
TAP	44	168	3
TAP	44	168	4
TAP	44	240	1
TAP	44	240	6
TAP	44	288	7
TAP	44	312	0
BRK	44	360	1
BST	44	360	6
SCL	44	360	6	96	216	7
TAP	46	0	5
TAP	46	24	4
TAP	46	48	2
TAP	46	72	3
TAP	46	120	3
TAP	46	120	4
TAP	46	168	3
TAP	46	168	4
TAP	46	216	6
TAP	46	240	4
TAP	46	264	5
TAP	46	288	1
TAP	46	312	3
TAP	46	336	2
TAP	46	360	7
TAP	47	0	5
TAP	47	24	6
TAP	47	48	0
TAP	47	72	2
TAP	47	96	1
TAP	47	120	6
TAP	47	144	0
TAP	47	156	1
TAP	47	168	2
TAP	47	180	3
TAP	47	192	4
TAP	47	204	5
TAP	47	216	6
TAP	47	228	7
STR	47	240	0
SF_	47	240	0	96	144	4
TAP	47	252	1
TAP	47	264	2
TAP	47	276	3
TAP	47	288	4
TAP	47	300	5
TAP	47	312	6
TAP	47	324	7
BRK	47	336	0
HLD	48	192	5	96
TAP	48	228	4
TAP	48	264	4
HLD	48	288	2	96
TAP	48	324	3
TAP	48	360	3
HLD	49	0	6	96
TAP	49	36	5
TAP	49	72	5
HLD	49	96	1	96
TAP	49	132	2
TAP	49	168	2
HLD	49	192	6	96
TAP	49	228	7
TAP	49	264	7
HLD	49	288	1	96
TAP	49	324	0
TAP	49	360	0
HLD	50	0	7	96
TAP	50	36	0
TAP	50	72	0
TAP	50	96	0
TAP	50	120	1
TAP	50	120	6
TAP	50	132	1
TAP	50	132	6
TAP	50	192	3
TAP	50	204	4
TAP	50	216	3
TAP	50	228	4
TAP	50	240	3
TAP	50	252	4
TAP	50	264	3
TAP	50	276	4
TAP	50	288	2
TAP	50	300	5
TAP	50	312	2
TAP	50	324	5
TAP	50	336	2
TAP	50	348	5
TAP	50	360	2
TAP	50	372	5
TAP	51	0	3
TAP	51	12	5
TAP	51	24	3
TAP	51	36	5
TAP	51	48	3
TAP	51	60	5
TAP	51	72	3
TAP	51	84	5
TAP	51	96	2
TAP	51	108	4
TAP	51	120	2
TAP	51	132	4
TAP	51	144	2
TAP	51	156	4
TAP	51	168	2
TAP	51	180	4
TAP	51	192	2
TAP	51	216	5
TAP	51	240	2
TAP	51	264	5
TAP	51	288	2
TAP	51	312	5
TAP	51	336	2
TAP	51	360	5
TAP	52	0	1
TAP	52	24	6
TAP	52	48	1
TAP	52	72	6
TAP	52	96	1
TAP	52	120	6
TAP	52	144	1
TAP	52	168	6
TAP	52	192	0
TAP	52	216	7
TAP	52	240	0
TAP	52	264	7
TAP	52	288	0
TAP	52	312	7
TAP	52	336	0
TAP	52	348	7
TAP	52	360	0
STR	53	0	0
SI_	53	0	0	96	48	4
STR	53	0	7
SI_	53	0	7	96	48	3
BRK	53	96	0
BRK	53	96	7
STR	53	192	1
SLR	53	192	1	96	48	0
STR	53	240	0
SI_	53	240	0	96	48	4
TAP	53	264	0
TAP	53	312	6
TAP	53	336	5
STR	54	0	6
SLL	54	0	6	96	48	7
STR	54	48	7
SI_	54	48	7	96	48	3
TAP	54	72	7
TAP	54	120	1
TAP	54	144	2
STR	54	192	1
SLR	54	192	1	96	48	0
STR	54	240	0
SI_	54	240	0	96	48	4
TAP	54	264	0
TAP	54	312	6
TAP	54	336	5
STR	55	0	6
SLL	55	0	6	96	48	7
STR	55	48	7
SI_	55	48	7	96	48	3
TAP	55	72	7
TAP	55	120	1
TAP	55	144	2
STR	55	192	1
SLR	55	192	1	96	48	7
STR	55	240	7
SV_	55	240	7	96	48	4
TAP	55	264	7
TAP	55	312	6
TAP	55	336	5
STR	56	0	6
SLL	56	0	6	96	48	0
STR	56	48	0
SV_	56	48	0	96	48	3
TAP	56	72	0
TAP	56	120	1
TAP	56	144	2
STR	56	192	1
SLR	56	192	1	96	48	7
STR	56	240	7
SV_	56	240	7	96	48	4
TAP	56	264	7
TAP	56	312	6
TAP	56	336	5
STR	57	0	6
SLL	57	0	6	96	48	0
STR	57	48	0
SCR	57	48	0	96	48	3
TAP	57	72	0
STR	57	192	4
SLR	57	192	4	96	48	3
STR	57	240	3
SV_	57	240	3	96	48	0
TAP	57	264	3
TAP	57	312	1
TAP	57	336	2
STR	58	0	3
SLL	58	0	3	96	48	4
STR	58	48	4
SV_	58	48	4	96	48	7
TAP	58	72	4
TAP	58	120	6
TAP	58	144	5
STR	58	192	4
SLR	58	192	4	96	48	3
STR	58	240	3
SV_	58	240	3	96	48	0
TAP	58	264	3
TAP	58	312	1
TAP	58	336	2
STR	59	0	3
SLL	59	0	3	96	48	4
STR	59	48	4
SV_	59	48	4	96	48	7
TAP	59	72	4
TAP	59	120	6
TAP	59	144	5
STR	59	192	4
SLR	59	192	4	96	48	3
STR	59	240	3
SCR	59	240	3	96	48	0
TAP	59	264	3
TAP	59	312	1
TAP	59	336	2
STR	60	0	3
SLL	60	0	3	96	48	4
STR	60	48	4
SCL	60	48	4	96	48	7
TAP	60	72	4
TAP	60	120	6
TAP	60	144	5
STR	60	192	4
SLR	60	192	4	96	48	3
STR	60	240	3
SCR	60	240	3	96	48	0
TAP	60	264	3
TAP	60	312	1
TAP	60	336	2
TAP	61	0	3
TAP	61	48	1
TAP	61	48	5
BRK	61	96	2
BRK	61	96	6
TAP	61	144	0
TAP	61	144	7
HLD	61	168	0	264
STR	61	168	7
SXR	61	168	7	96	168	4
TAP	62	96	0
TAP	62	144	0
STR	62	168	0
SXL	62	168	0	96	168	3
TAP	62	336	4
TAP	63	0	4
TAP	63	48	5
TAP	63	96	6
TAP	63	144	7
TAP	63	192	5
TAP	63	216	4
TAP	63	240	2
TAP	63	264	3
TAP	63	288	5
TAP	63	312	4
TAP	63	336	2
TAP	63	360	3
TAP	64	0	6
TAP	64	24	4
TAP	64	48	1
TAP	64	72	3
TAP	64	96	6
TAP	64	120	4
TAP	64	144	1
STR	64	168	3
SI_	64	168	3	96	48	7
TAP	64	336	2
TAP	64	360	2
TAP	65	0	5
TAP	65	24	5
TAP	65	48	3
TAP	65	72	3
TAP	65	96	4
TAP	65	120	4
TAP	65	144	3
TAP	65	168	3
TAP	65	192	6
TAP	65	208	5
TAP	65	224	4
TAP	65	240	1
TAP	65	256	2
TAP	65	272	3
TAP	65	288	7
TAP	65	304	6
TAP	65	320	5
TAP	65	336	0
TAP	65	352	1
TAP	65	368	2
TAP	66	0	6
TAP	66	16	5
TAP	66	32	4
TAP	66	48	1
TAP	66	64	2
TAP	66	80	3
TAP	66	96	5
TAP	66	112	4
TAP	66	128	3
TAP	66	144	2
TAP	66	160	3
TAP	66	176	4
TAP	66	192	6
TAP	66	216	7
TAP	66	240	5
TAP	66	264	0
TAP	66	288	4
TAP	66	312	1
TAP	66	336	3
TAP	66	360	2
TAP	67	0	5
TAP	67	24	4
TAP	67	48	6
BRK	67	72	3
TAP	67	192	2
TAP	67	192	7
TAP	67	240	3
TAP	67	264	4
TAP	67	312	4
TAP	67	360	0
STR	67	360	5
SCL	67	360	5	96	48	2
TAP	68	48	0
TAP	68	48	5
STR	68	168	0
SXL	68	168	0	96	48	2
STR	68	168	7
SXR	68	168	7	96	48	5
TAP	68	216	1
TAP	68	216	6
TAP	68	360	3
TAP	68	360	4
TAP	69	48	1
TAP	69	48	6
TAP	69	96	0
TAP	69	120	7
BST	69	168	1
SCR	69	168	1	96	216	0
BRK	69	168	6
TAP	70	192	2
TAP	70	216	3
TAP	70	240	5
TAP	70	264	4
TAP	70	312	3
TAP	70	312	4
TAP	70	360	3
TAP	70	360	4
TAP	71	24	0
TAP	71	48	2
TAP	71	72	1
TAP	71	96	7
TAP	71	120	5
TAP	71	144	6
TAP	71	168	1
TAP	71	192	3
TAP	71	216	2
TAP	71	240	6
TAP	71	264	4
TAP	71	288	5
TAP	71	312	2
TAP	71	336	4
TAP	71	348	5
TAP	71	360	6
TAP	71	372	7
TAP	72	0	0
TAP	72	12	1
TAP	72	24	2
TAP	72	36	3
STR	72	48	4
SF_	72	48	4	96	816	0
TAP	72	60	5
TAP	72	72	6
TAP	72	84	7
TAP	72	96	0
TAP	72	108	1
TAP	72	120	2
TAP	72	132	3
BRK	72	144	4

T_REC_TAP	865
T_REC_BRK	9
T_REC_XTP	0
T_REC_HLD	23
T_REC_XHO	0
T_REC_STR	50
T_REC_BST	2
T_REC_XST	0
T_REC_TTP	0
T_REC_THO	0
T_REC_SLD	52
T_REC_ALL	1001
T_NUM_TAP	915
T_NUM_BRK	11
T_NUM_HLD	23
T_NUM_SLD	52
T_NUM_ALL	1001
T_JUDGE_TAP	926
T_JUDGE_HLD	56
T_JUDGE_SLD	52
T_JUDGE_ALL	1034
TTM_EACHPAIRS	142
TTM_SCR_TAP	457500
TTM_SCR_BRK	28600
TTM_SCR_HLD	23000
TTM_SCR_SLD	78000
TTM_SCR_ALL	587100
TTM_SCR_S	568450
TTM_SCR_SS	586000
TTM_RAT_ACV	10018

