VERSION	0.00.00	1.03.00
FES_MODE	0
BPM_DEF	140.000	140.000	140.000	 35.000
MET_DEF	4	4
RESOLUTION	384
CLK_DEF	384
COMPATIBLE_CODE	MA2

BPM	0	0	140.000
BPM	13	144	 70.000
BPM	14	48	140.000
BPM	14	240	 70.000
BPM	15	144	140.000
BPM	16	48	 70.000
BPM	16	336	140.000
BPM	48	0	 35.000
BPM	48	192	 70.000
BPM	52	192	140.000
MET	0	0	4	4
MET	1	0	4	7
MET	2	288	4	6
MET	4	96	4	4
MET	11	96	4	3
MET	12	288	16	10
MET	13	144	4	3
MET	14	48	4	2
MET	14	240	4	3
MET	16	336	8	3
MET	17	240	4	7
MET	22	336	4	4
MET	31	336	4	3
MET	32	240	8	5
MET	33	96	4	3
MET	34	0	8	5
MET	34	240	4	3
MET	35	144	8	5
MET	36	0	4	4
MET	48	0	4	2
MET	48	192	4	4

TAP	1	0	3
TAP	1	0	4
TAP	1	96	1
TAP	1	96	2
TAP	1	192	0
TAP	1	192	7
TAP	1	288	5
TAP	1	288	6
TAP	2	0	3
TAP	2	0	4
TAP	2	96	3
TAP	2	168	2
TAP	2	168	3
TAP	2	240	3
TAP	2	240	4
TAP	2	288	3
TAP	2	288	4
TAP	3	0	5
TAP	3	0	6
TAP	3	96	0
TAP	3	96	7
TAP	3	192	1
TAP	3	192	2
TAP	3	288	3
TAP	3	288	4
TAP	4	0	4
TAP	4	72	4
TAP	4	72	5
TAP	4	144	3
TAP	4	144	4
TAP	4	216	2
TAP	4	264	2
TAP	4	336	5
TAP	5	0	5
TAP	5	72	3
TAP	5	72	4
TAP	5	192	2
TAP	5	264	3
TAP	5	264	4
TAP	6	0	5
TAP	6	72	3
TAP	6	72	4
TAP	6	192	2
TAP	6	192	5
TAP	6	240	3
TAP	6	240	4
TAP	6	312	2
TAP	6	312	5
TAP	6	360	2
TAP	6	360	5
TAP	7	24	3
TAP	7	24	4
TAP	7	96	2
TAP	7	96	3
TAP	7	192	1
TAP	7	264	2
TAP	7	264	3
TAP	8	0	4
TAP	8	72	2
TAP	8	72	3
TAP	8	192	1
TAP	8	192	4
TAP	8	240	2
TAP	8	240	3
TAP	8	312	1
TAP	8	312	4
TAP	8	360	1
TAP	8	360	4
TAP	9	24	2
TAP	9	24	3
TAP	9	96	4
TAP	9	96	5
TAP	9	192	6
TAP	9	264	4
TAP	9	264	5
TAP	10	0	3
TAP	10	72	4
TAP	10	72	5
TAP	10	192	3
TAP	10	192	6
TAP	10	240	4
TAP	10	240	5
TAP	10	312	3
TAP	10	312	6
TAP	10	360	3
TAP	10	360	6
TAP	11	24	4
TAP	11	24	5
HLD	11	96	2	72
HLD	11	96	3	72
HLD	11	240	4	72
HLD	11	240	5	72
HLD	12	0	1	72
HLD	12	0	3	72
HLD	12	144	4	72
HLD	12	144	6	72
TAP	12	288	2
TAP	12	328	1
TAP	12	368	0
TAP	13	24	7
TAP	13	64	6
TAP	13	104	5
HLD	13	144	4	96
HLD	13	240	3	96
HLD	13	336	2	48
HLD	14	0	1	48
TAP	14	48	0
TAP	14	144	6
TAP	14	144	7
HLD	14	240	3	96
HLD	14	336	4	48
HLD	15	0	5	72
HLD	15	72	6	72
TAP	15	144	7
TAP	15	216	0
TAP	15	216	1
TAP	15	288	6
TAP	15	288	7
TAP	15	360	3
TAP	15	360	4
HLD	16	48	2	48
TAP	16	96	3
HLD	16	144	5	48
TAP	16	192	4
TAP	16	240	3
TAP	16	240	4
TAP	16	272	3
TAP	16	272	4
TAP	16	304	3
TAP	16	304	4
TAP	16	336	6
TAP	16	336	7
TAP	17	24	6
TAP	17	24	7
TAP	17	96	0
TAP	17	96	1
TAP	17	168	0
TAP	17	168	1
TAP	17	240	5
TAP	17	288	4
TAP	17	288	5
TAP	18	0	2
TAP	18	48	2
TAP	18	48	3
TAP	18	144	6
TAP	18	192	6
TAP	18	192	7
TAP	18	288	1
TAP	18	336	0
TAP	18	336	1
TAP	19	48	5
TAP	19	96	4
TAP	19	96	6
TAP	19	192	2
TAP	19	240	1
TAP	19	240	3
TAP	19	336	6
TAP	20	0	5
TAP	20	0	7
TAP	20	96	1
TAP	20	144	0
TAP	20	144	2
TAP	20	240	4
TAP	20	240	5
TAP	20	288	3
TAP	20	288	6
TAP	21	0	2
TAP	21	0	3
TAP	21	48	1
TAP	21	48	4
TAP	21	144	6
TAP	21	144	7
TAP	21	192	0
TAP	21	192	5
TAP	21	288	0
TAP	21	288	1
TAP	21	336	2
TAP	21	336	7
TAP	22	48	3
TAP	22	48	4
TAP	22	96	1
TAP	22	96	6
TAP	22	192	0
TAP	22	192	7
TAP	22	240	2
TAP	22	240	5
BST	22	336	0
SXL	22	336	0	96	192	3
BST	22	336	7
SXR	22	336	7	96	192	4
HLD	23	336	2	144
TAP	24	24	3
TAP	24	96	3
TAP	24	144	1
TAP	24	216	0
TAP	24	288	6
TAP	24	288	7
HLD	24	336	5	144
TAP	25	24	4
TAP	25	96	4
TAP	25	144	6
TAP	25	216	7
TAP	25	288	0
TAP	25	288	1
HLD	25	336	3	144
TAP	26	24	2
TAP	26	96	2
HLD	26	144	4	144
TAP	26	216	5
TAP	26	288	5
TAP	26	336	0
TAP	26	336	7
TAP	27	24	1
TAP	27	24	6
TAP	27	96	2
TAP	27	96	5
TAP	27	144	3
TAP	27	144	4
TAP	27	192	3
TAP	27	192	4
TAP	27	240	2
TAP	27	240	5
HLD	27	336	3	72
HLD	28	24	2	72
TAP	28	96	1
HLD	28	144	4	72
HLD	28	216	5	72
TAP	28	288	6
HLD	28	336	0	72
HLD	29	24	1	72
TAP	29	96	2
HLD	29	144	7	72
HLD	29	216	6	72
TAP	29	288	5
TAP	29	336	0
TAP	30	0	1
TAP	30	48	2
TAP	30	96	3
TAP	30	144	4
TAP	30	192	5
TAP	30	240	6
TAP	30	288	7
TAP	30	336	0
TAP	31	0	0
TAP	31	48	7
TAP	31	96	7
TAP	31	144	0
TAP	31	144	7
TAP	31	216	1
TAP	31	216	6
TAP	31	288	2
TAP	31	288	5
TAP	31	336	2
TAP	31	336	3
HLD	32	24	1	216
TAP	32	24	4
TAP	32	240	6
TAP	32	264	6
TAP	33	96	4
TAP	33	96	5
TAP	33	168	3
HLD	33	168	6	216
TAP	34	0	1
TAP	34	24	1
TAP	34	240	3
TAP	34	240	4
TAP	34	312	2
TAP	34	312	5
TAP	35	144	0
TAP	35	144	7
TAP	35	168	0
TAP	35	168	7
BST	36	0	0
SCL	36	0	0	96	192	4
BST	36	0	7
SCR	36	0	7	96	192	3
TAP	36	360	3
TAP	36	360	4
TAP	37	96	2
TAP	37	168	3
TAP	37	168	4
TAP	37	288	5
TAP	37	360	3
TAP	37	360	4
TAP	38	96	2
TAP	38	96	5
TAP	38	144	3
TAP	38	144	4
TAP	38	216	2
TAP	38	216	5
TAP	38	264	2
TAP	38	264	5
TAP	38	312	3
TAP	38	312	4
STR	39	0	1
SI_	39	0	1	96	48	5
STR	39	168	1
SCL	39	168	1	96	48	6
STR	39	360	1
SCR	39	360	1	96	48	4
STR	40	144	1
SI_	40	144	1	96	48	4
SI_	40	144	1	96	48	6
STR	41	0	6
SI_	41	0	6	96	48	2
STR	41	168	6
SCR	41	168	6	96	48	1
STR	41	360	6
SCL	41	360	6	96	48	3
STR	42	144	6
SI_	42	144	6	96	48	1
SI_	42	144	6	96	48	3
TAP	43	0	0
TAP	43	0	7
HLD	43	168	1	72
TAP	43	168	2
TAP	43	240	2
TAP	43	360	3
TAP	43	360	4
TAP	44	24	3
TAP	44	24	4
TAP	44	168	5
HLD	44	168	6	72
TAP	44	240	5
STR	44	360	0
SCR	44	360	0	96	216	7
TAP	46	0	7
TAP	46	24	0
TAP	46	48	7
TAP	46	72	0
TAP	46	120	1
TAP	46	120	6
TAP	46	168	2
TAP	46	168	5
TAP	46	216	3
TAP	46	216	4
TAP	46	264	2
TAP	46	288	3
TAP	46	336	5
TAP	46	360	4
TAP	47	24	1
TAP	47	48	3
TAP	47	96	6
TAP	47	120	4
TAP	47	168	1
TAP	47	192	0
TAP	47	240	6
TAP	47	264	7
STR	47	312	0
SF_	47	312	0	96	96	4
HLD	48	192	2	72
TAP	48	228	3
TAP	48	264	4
HLD	48	288	5	72
TAP	48	324	4
TAP	48	360	3
HLD	49	0	1	72
TAP	49	36	3
TAP	49	72	5
HLD	49	96	6	72
TAP	49	132	4
TAP	49	168	2
HLD	49	192	1	72
TAP	49	228	2
TAP	49	264	5
HLD	49	288	6	72
TAP	49	324	5
TAP	49	360	2
TAP	50	0	0
TAP	50	0	1
TAP	50	36	6
TAP	50	36	7
TAP	50	72	1
TAP	50	72	6
TAP	50	96	2
TAP	50	96	5
TAP	50	120	3
TAP	50	120	4
TAP	50	132	3
TAP	50	132	4
HLD	50	192	2	72
TAP	50	192	3
TAP	50	228	4
TAP	50	264	6
TAP	50	288	4
HLD	50	288	5	72
TAP	50	324	3
TAP	50	360	1
HLD	51	0	2	72
TAP	51	0	3
TAP	51	36	1
TAP	51	72	7
TAP	51	96	4
HLD	51	96	5	72
TAP	51	132	6
TAP	51	168	0
HLD	51	192	1	72
TAP	51	192	5
TAP	51	228	0
TAP	51	264	2
TAP	51	288	2
HLD	51	288	6	72
TAP	51	324	7
TAP	51	360	5
TAP	52	0	0
TAP	52	0	1
TAP	52	36	6
TAP	52	36	7
TAP	52	72	3
TAP	52	72	4
TAP	52	96	3
TAP	52	96	4
BRK	52	144	0
BRK	52	144	7
STR	52	192	1
SI_	52	192	1	96	48	4
TAP	52	264	0
TAP	52	336	7
STR	53	0	6
SI_	53	0	6	96	48	3
TAP	53	72	7
TAP	53	144	0
STR	53	192	1
SCR	53	192	1	96	48	4
TAP	53	264	0
TAP	53	336	7
STR	54	0	6
SCL	54	0	6	96	48	3
TAP	54	72	7
TAP	54	144	0
STR	54	192	1
SLR	54	192	1	96	48	5
TAP	54	264	0
TAP	54	336	7
STR	55	0	6
SLL	55	0	6	96	48	2
TAP	55	72	7
TAP	55	144	0
TAP	55	192	6
TAP	55	192	7
TAP	55	264	0
TAP	55	264	1
TAP	55	336	3
TAP	55	336	4
TAP	56	0	2
TAP	56	0	5
TAP	56	48	3
TAP	56	48	4
TAP	56	72	3
TAP	56	72	4
STR	56	192	1
SI_	56	192	1	96	48	4
TAP	56	192	4
TAP	56	264	0
TAP	56	336	7
TAP	57	0	3
STR	57	0	6
SI_	57	0	6	96	48	3
TAP	57	72	7
TAP	57	144	0
STR	57	192	1
SCR	57	192	1	96	48	4
TAP	57	192	4
TAP	57	264	0
TAP	57	336	7
TAP	58	0	3
STR	58	0	6
SCL	58	0	6	96	48	3
TAP	58	72	7
TAP	58	144	0
STR	58	192	1
SLR	58	192	1	96	48	5
TAP	58	192	5
TAP	58	264	0
TAP	58	336	7
TAP	59	0	2
STR	59	0	6
SLL	59	0	6	96	48	2
TAP	59	72	7
TAP	59	144	0
TAP	59	192	6
TAP	59	192	7
TAP	59	264	0
TAP	59	264	1
TAP	59	336	0
TAP	59	336	7
TAP	60	0	1
TAP	60	0	6
TAP	60	96	0
TAP	60	96	7
TAP	60	144	0
TAP	60	144	7
BRK	60	168	0
BRK	60	168	7
TAP	60	288	1
TAP	60	360	0
TAP	60	360	7
TAP	61	96	6
TAP	61	168	0
TAP	61	168	7
TAP	61	288	1
TAP	61	288	6
TAP	61	336	0
TAP	61	336	7
TAP	62	24	1
TAP	62	24	6
TAP	62	72	1
TAP	62	72	6
TAP	62	120	0
TAP	62	120	7
STR	62	192	0
SI_	62	192	0	96	48	4
STR	62	360	0
SCL	62	360	0	96	48	5
SCR	62	360	0	96	48	3
STR	63	168	0
SLL	63	168	0	96	48	4
SLR	63	168	0	96	48	4
STR	63	336	0
SF_	63	336	0	96	48	4
STR	64	192	7
SI_	64	192	7	96	48	3
STR	64	360	7
SCL	64	360	7	96	48	4
SCR	64	360	7	96	48	2
STR	65	168	7
SLL	65	168	7	96	48	3
SLR	65	168	7	96	48	3
STR	65	336	7
SF_	65	336	7	96	48	3
TAP	66	192	3
TAP	66	192	4
TAP	66	360	1
HLD	66	360	2	72
TAP	67	48	1
TAP	67	168	0
TAP	67	168	7
TAP	67	216	0
TAP	67	216	7
HLD	67	360	5	72
TAP	67	360	6
TAP	68	48	6
STR	68	168	7
SCL	68	168	7	96	216	0
TAP	69	192	7
TAP	69	216	0
TAP	69	240	7
TAP	69	264	0
TAP	69	312	1
TAP	69	312	6
TAP	69	360	2
TAP	69	360	5
TAP	70	24	2
TAP	70	48	3
TAP	70	72	2
TAP	70	96	5
TAP	70	120	4
TAP	70	144	5
TAP	70	168	1
TAP	70	192	3
TAP	70	216	2
TAP	70	240	6
TAP	70	264	4
TAP	70	288	5
TAP	70	312	1
TAP	70	336	0
TAP	70	360	1
TAP	71	0	6
TAP	71	24	7
TAP	71	48	6
TAP	71	72	0
STR	71	96	7
SF_	71	96	7	96	768	3

T_REC_TAP	443
T_REC_BRK	4
T_REC_XTP	0
T_REC_HLD	48
T_REC_XHO	0
T_REC_STR	32
T_REC_BST	4
T_REC_XST	0
T_REC_TTP	0
T_REC_THO	0
T_REC_SLD	42
T_REC_ALL	573
T_NUM_TAP	475
T_NUM_BRK	8
T_NUM_HLD	48
T_NUM_SLD	42
T_NUM_ALL	573
T_JUDGE_TAP	483
T_JUDGE_HLD	126
T_JUDGE_SLD	42
T_JUDGE_ALL	651
TTM_EACHPAIRS	160
TTM_SCR_TAP	237500
TTM_SCR_BRK	20800
TTM_SCR_HLD	48000
TTM_SCR_SLD	63000
TTM_SCR_ALL	369300
TTM_SCR_S	357450
TTM_SCR_SS	368500
TTM_RAT_ACV	10021

