VERSION	0.00.00	1.03.00
FES_MODE	0
BPM_DEF	140.000	140.000	140.000	 35.000
MET_DEF	4	4
RESOLUTION	384
CLK_DEF	384
COMPATIBLE_CODE	MA2

BPM	0	0	140.000
BPM	13	144	 70.000
BPM	14	48	140.000
BPM	14	240	 70.000
BPM	15	144	140.000
BPM	16	48	 70.000
BPM	16	336	140.000
BPM	48	0	 35.000
BPM	48	192	 70.000
BPM	52	192	140.000
MET	0	0	4	4
MET	1	0	4	7
MET	2	288	4	6
MET	4	96	4	4
MET	11	96	4	3
MET	12	288	16	10
MET	13	144	4	3
MET	14	48	4	2
MET	14	240	4	3
MET	16	336	8	3
MET	17	240	4	7
MET	22	336	4	4
MET	31	336	4	3
MET	32	240	8	5
MET	33	96	4	3
MET	34	0	8	5
MET	34	240	4	3
MET	35	144	8	5
MET	36	0	4	4
MET	48	0	4	2
MET	48	192	4	4

TAP	1	0	2
TAP	1	96	2
TAP	1	192	3
TAP	1	288	3
TAP	2	0	2
TAP	2	96	3
TAP	2	192	2
TAP	2	192	3
TAP	2	288	5
TAP	3	0	5
TAP	3	96	4
TAP	3	192	4
TAP	3	288	5
TAP	4	0	4
TAP	4	96	4
TAP	4	96	5
TAP	4	216	3
TAP	4	216	4
TAP	4	264	3
TAP	4	264	4
TAP	5	0	2
TAP	5	0	5
HLD	5	72	2	192
HLD	5	264	4	192
HLD	6	72	3	168
HLD	6	240	5	144
HLD	7	96	5	168
HLD	7	264	3	192
HLD	8	72	4	168
HLD	8	240	2	144
HLD	9	96	2	168
HLD	9	264	3	192
HLD	10	72	4	168
HLD	10	240	5	144
HLD	11	96	3	144
HLD	11	96	4	144
HLD	12	0	2	144
HLD	12	0	5	144
TAP	12	288	3
TAP	13	24	4
STR	13	144	3
SCL	13	144	3	96	144	4
TAP	14	48	4
TAP	14	48	5
TAP	14	144	2
TAP	14	144	3
STR	14	240	4
SCR	14	240	4	96	144	3
TAP	15	144	3
TAP	15	144	4
TAP	15	216	2
TAP	15	216	5
TAP	15	288	1
TAP	15	288	6
TAP	15	360	0
TAP	15	360	7
STR	16	48	0
SF_	16	48	0	96	144	4
TAP	16	336	4
TAP	16	336	5
TAP	17	24	4
TAP	17	24	5
TAP	17	96	2
TAP	17	96	3
TAP	17	168	2
TAP	17	168	3
TAP	17	240	3
TAP	17	240	4
TAP	17	288	3
TAP	17	288	4
TAP	18	0	2
TAP	18	0	3
TAP	18	48	2
TAP	18	48	3
TAP	18	144	3
TAP	18	144	4
TAP	18	192	3
TAP	18	192	4
TAP	18	288	4
TAP	18	288	5
TAP	18	336	4
TAP	18	336	5
TAP	19	48	3
TAP	19	48	4
TAP	19	96	3
TAP	19	96	4
TAP	19	192	1
TAP	19	192	3
TAP	19	240	1
TAP	19	240	3
TAP	19	336	3
TAP	19	336	4
TAP	20	0	3
TAP	20	0	4
TAP	20	96	4
TAP	20	96	6
TAP	20	144	4
TAP	20	144	6
TAP	20	240	3
TAP	20	240	4
TAP	20	288	3
TAP	20	288	4
TAP	21	0	0
TAP	21	0	1
TAP	21	48	0
TAP	21	48	1
TAP	21	144	3
TAP	21	144	4
TAP	21	192	3
TAP	21	192	4
TAP	21	288	6
TAP	21	288	7
TAP	21	336	6
TAP	21	336	7
TAP	22	48	3
TAP	22	48	4
TAP	22	96	3
TAP	22	96	4
TAP	22	192	0
TAP	22	192	7
TAP	22	240	0
TAP	22	240	7
BST	22	336	0
SI_	22	336	0	96	192	3
BST	22	336	7
SI_	22	336	7	96	192	4
TAP	23	336	2
TAP	24	48	3
TAP	24	144	2
TAP	24	240	2
TAP	24	240	3
TAP	24	336	5
TAP	25	48	4
TAP	25	144	5
TAP	25	240	4
TAP	25	240	5
TAP	25	336	2
TAP	26	48	3
TAP	26	144	2
TAP	26	144	3
TAP	26	240	1
TAP	26	240	4
TAP	26	336	5
TAP	27	48	4
TAP	27	144	4
TAP	27	144	5
TAP	27	240	3
TAP	27	240	6
TAP	27	336	1
TAP	28	48	0
TAP	28	144	1
TAP	28	240	0
TAP	28	240	1
TAP	28	336	6
TAP	29	48	7
TAP	29	144	6
TAP	29	240	6
TAP	29	240	7
TAP	29	336	1
TAP	30	48	0
TAP	30	144	0
TAP	30	144	1
TAP	30	240	2
TAP	30	240	7
TAP	30	336	6
TAP	31	48	7
TAP	31	144	6
TAP	31	144	7
TAP	31	240	0
TAP	31	240	5
HLD	31	336	2	72
HLD	31	336	3	72
BRK	32	240	2
BRK	32	240	3
HLD	33	96	4	72
HLD	33	96	5	72
BRK	34	0	4
BRK	34	0	5
HLD	34	240	3	72
HLD	34	240	4	72
BRK	35	144	3
BRK	35	144	4
HLD	36	0	2	288
HLD	36	0	5	288
HLD	36	360	5	192
HLD	37	168	3	192
HLD	37	360	4	168
HLD	38	144	2	144
HLD	39	0	2	168
HLD	39	168	4	192
HLD	39	360	3	168
HLD	40	144	5	144
HLD	41	0	5	168
HLD	41	168	4	192
HLD	41	360	3	168
HLD	42	144	2	144
HLD	43	0	3	120
HLD	43	0	4	120
TAP	43	168	2
TAP	43	168	5
TAP	43	240	2
TAP	43	240	5
TAP	43	360	3
TAP	43	360	4
TAP	44	24	3
TAP	44	24	4
TAP	44	168	2
TAP	44	168	5
TAP	44	240	2
TAP	44	240	5
STR	44	360	1
SCR	44	360	1	96	216	6
TAP	46	0	0
TAP	46	0	7
TAP	46	48	0
TAP	46	48	7
TAP	46	120	6
TAP	46	168	6
TAP	46	216	7
TAP	46	288	6
TAP	46	360	5
TAP	47	48	4
TAP	47	120	3
TAP	47	192	2
TAP	47	264	1
STR	47	336	0
SF_	47	336	0	96	96	4
HLD	48	192	2	48
TAP	48	240	3
HLD	48	288	5	48
TAP	48	336	4
HLD	49	0	1	48
TAP	49	48	3
HLD	49	96	6	48
TAP	49	144	4
HLD	49	192	1	48
TAP	49	240	2
HLD	49	288	6	48
TAP	49	336	5
HLD	50	0	1	48
TAP	50	48	0
HLD	50	96	6	48
TAP	50	144	7
HLD	50	192	2	48
TAP	50	240	3
HLD	50	288	5	48
TAP	50	336	4
HLD	51	0	1	48
TAP	51	48	3
HLD	51	96	6	48
TAP	51	144	4
HLD	51	192	1	48
TAP	51	240	2
HLD	51	288	6	48
TAP	51	336	5
HLD	52	0	0	48
TAP	52	48	7
BRK	52	96	0
BRK	52	96	7
BRK	52	144	3
BRK	52	144	4
TAP	52	192	2
TAP	52	264	3
TAP	52	336	2
TAP	52	336	3
TAP	53	0	5
TAP	53	72	4
TAP	53	144	4
TAP	53	144	5
TAP	53	192	2
TAP	53	264	3
TAP	53	336	2
TAP	53	336	4
TAP	54	0	5
TAP	54	72	4
TAP	54	144	3
TAP	54	144	5
TAP	54	192	2
TAP	54	264	3
TAP	54	336	1
TAP	54	336	4
TAP	55	0	5
TAP	55	72	4
TAP	55	144	3
TAP	55	144	6
TAP	55	192	2
TAP	55	192	3
TAP	55	264	4
TAP	55	264	5
TAP	55	336	3
TAP	55	336	4
TAP	56	0	2
TAP	56	0	5
TAP	56	72	3
TAP	56	72	4
TAP	56	192	1
TAP	56	264	0
TAP	56	336	0
TAP	56	336	1
TAP	57	0	6
TAP	57	72	7
TAP	57	144	6
TAP	57	144	7
TAP	57	192	1
TAP	57	264	0
TAP	57	336	2
TAP	57	336	7
TAP	58	0	6
TAP	58	72	7
TAP	58	144	0
TAP	58	144	5
TAP	58	192	2
TAP	58	264	3
TAP	58	336	0
TAP	58	336	1
TAP	59	0	5
TAP	59	72	4
TAP	59	144	6
TAP	59	144	7
TAP	59	192	0
TAP	59	192	1
TAP	59	264	6
TAP	59	264	7
TAP	59	336	0
TAP	59	336	7
TAP	60	0	0
TAP	60	0	7
TAP	60	96	1
TAP	60	96	6
HLD	60	168	1	192
HLD	60	360	7	192
HLD	61	168	0	168
HLD	61	336	6	144
HLD	62	192	6	168
HLD	62	360	0	192
HLD	63	168	7	168
HLD	63	336	1	144
HLD	64	192	1	168
HLD	64	360	0	192
HLD	65	168	7	168
HLD	65	336	6	144
HLD	66	192	0	120
HLD	66	192	7	120
TAP	66	360	1
TAP	66	360	6
TAP	67	48	1
TAP	67	48	6
TAP	67	168	0
TAP	67	168	7
TAP	67	216	0
TAP	67	216	7
TAP	67	360	1
TAP	67	360	6
TAP	68	48	1
TAP	68	48	6
STR	68	168	7
SCL	68	168	7	96	216	0
TAP	69	192	0
TAP	69	192	7
TAP	69	240	0
TAP	69	240	7
TAP	69	312	1
TAP	69	360	1
TAP	70	24	0
TAP	70	96	1
TAP	70	168	2
TAP	70	240	3
TAP	70	312	4
TAP	71	0	5
TAP	71	72	6
STR	71	144	7
SF_	71	144	7	96	720	3

T_REC_TAP	277
T_REC_BRK	10
T_REC_XTP	0
T_REC_HLD	67
T_REC_XHO	0
T_REC_STR	7
T_REC_BST	2
T_REC_XST	0
T_REC_TTP	0
T_REC_THO	0
T_REC_SLD	9
T_REC_ALL	372
T_NUM_TAP	284
T_NUM_BRK	12
T_NUM_HLD	67
T_NUM_SLD	9
T_NUM_ALL	372
T_JUDGE_TAP	296
T_JUDGE_HLD	213
T_JUDGE_SLD	9
T_JUDGE_ALL	518
TTM_EACHPAIRS	107
TTM_SCR_TAP	142000
TTM_SCR_BRK	31200
TTM_SCR_HLD	67000
TTM_SCR_SLD	13500
TTM_SCR_ALL	253700
TTM_SCR_S	244950
TTM_SCR_SS	252500
TTM_RAT_ACV	10047

