VERSION	0.00.00	1.03.00
FES_MODE	0
BPM_DEF	140.000	140.000	140.000	 35.000
MET_DEF	4	4
RESOLUTION	384
CLK_DEF	384
COMPATIBLE_CODE	MA2

BPM	0	0	140.000
BPM	13	144	 70.000
BPM	14	48	140.000
BPM	14	240	 70.000
BPM	15	144	140.000
BPM	16	48	 70.000
BPM	16	336	140.000
BPM	48	0	 35.000
BPM	48	192	 70.000
BPM	52	192	140.000
MET	0	0	4	4
MET	1	0	4	7
MET	2	288	4	6
MET	4	96	4	4
MET	11	96	4	3
MET	12	288	16	10
MET	13	144	4	3
MET	14	48	4	2
MET	14	240	4	3
MET	16	336	8	3
MET	17	240	4	7
MET	22	336	4	4
MET	31	336	4	3
MET	32	240	8	5
MET	33	96	4	3
MET	34	0	8	5
MET	34	240	4	3
MET	35	144	8	5
MET	36	0	4	4
MET	48	0	4	2
MET	48	192	4	4

TAP	5	72	0
TAP	5	264	0
TAP	6	72	0
TAP	6	240	0
TAP	7	96	7
TAP	7	264	7
TAP	8	72	7
TAP	8	240	7
TAP	9	96	0
TAP	9	264	0
TAP	10	72	0
TAP	10	240	0
TAP	11	96	6
TAP	11	96	7
TAP	11	240	7
TAP	12	0	0
TAP	12	0	1
TAP	12	144	0
HLD	12	288	0	240
HLD	12	288	7	240
TAP	14	48	0
TAP	14	144	0
TAP	14	240	0
TAP	15	0	1
TAP	15	144	7
TAP	15	288	7
TAP	16	48	7
TAP	16	192	7
TAP	16	336	0
TAP	17	96	0
TAP	17	240	0
TAP	18	48	0
TAP	18	240	1
TAP	19	48	1
TAP	19	240	2
TAP	20	48	2
TAP	20	240	3
TAP	21	48	3
TAP	21	48	4
TAP	21	240	4
TAP	22	48	4
TAP	22	240	5
TAP	23	336	5
TAP	24	48	5
TAP	24	144	4
TAP	24	144	5
TAP	24	336	2
TAP	25	48	2
TAP	25	144	2
TAP	25	144	3
TAP	25	336	4
TAP	26	48	4
TAP	26	144	2
TAP	26	144	5
TAP	26	336	3
TAP	27	48	3
BRK	27	144	2
BRK	27	144	5
TAP	27	336	6
TAP	28	48	6
TAP	28	144	6
TAP	28	144	7
TAP	28	336	1
TAP	29	48	1
TAP	29	144	0
TAP	29	144	1
TAP	29	336	7
TAP	30	48	7
TAP	30	144	1
TAP	30	144	6
TAP	30	336	0
TAP	31	48	0
TAP	31	144	1
TAP	31	144	6
TAP	31	336	7
TAP	32	240	6
TAP	33	96	5
TAP	34	0	4
TAP	34	240	3
TAP	35	144	2
TAP	36	0	1
TAP	36	192	1
STR	37	0	0
SI_	37	0	0	96	288	4
STR	39	0	7
SI_	39	0	7	96	288	3
STR	41	0	1
SI_	41	0	1	96	288	5
TAP	43	0	6
TAP	43	168	6
TAP	43	360	7
TAP	44	168	0
TAP	44	360	1
TAP	44	360	6
TAP	46	0	5
TAP	46	192	5
TAP	46	288	3
TAP	47	0	3
HLD	47	96	3	240
TAP	48	192	0
TAP	48	288	0
TAP	49	0	1
TAP	49	96	1
TAP	49	192	2
TAP	49	288	2
TAP	50	0	3
TAP	50	96	3
TAP	50	96	4
TAP	50	192	4
TAP	50	240	4
TAP	50	288	4
TAP	51	0	5
TAP	51	48	5
TAP	51	96	5
TAP	51	192	6
TAP	51	240	6
TAP	51	288	6
TAP	52	0	7
TAP	52	48	0
BRK	52	96	0
BRK	52	96	7
TAP	52	192	7
TAP	52	288	7
TAP	53	0	7
TAP	53	96	7
TAP	53	192	6
TAP	53	240	6
TAP	53	288	6
TAP	54	0	5
TAP	54	0	7
TAP	54	192	5
TAP	54	288	5
TAP	55	0	5
TAP	55	96	5
TAP	55	192	4
TAP	55	240	4
TAP	55	288	4
TAP	56	0	3
TAP	56	0	5
TAP	56	192	3
TAP	56	288	3
TAP	57	0	3
TAP	57	96	3
TAP	57	192	2
TAP	57	240	2
TAP	57	288	2
TAP	58	0	1
TAP	58	0	3
TAP	58	192	1
TAP	58	288	1
TAP	59	0	1
TAP	59	96	1
TAP	59	192	0
TAP	59	288	0
TAP	60	0	0
TAP	60	0	7
TAP	60	96	0
TAP	60	96	7
STR	60	192	0
SI_	60	192	0	96	288	5
STR	62	192	7
SI_	62	192	7	96	288	2
STR	64	192	1
SI_	64	192	1	96	288	4
TAP	66	192	6
TAP	66	192	7
TAP	66	360	7
TAP	67	168	0
TAP	67	168	1
TAP	67	360	0
HLD	68	168	1	408
HLD	68	168	6	408
TAP	70	216	2
TAP	70	216	3
TAP	70	336	4
TAP	70	336	5
HLD	71	144	2	816
HLD	71	144	5	816

T_REC_TAP	155
T_REC_BRK	4
T_REC_XTP	0
T_REC_HLD	7
T_REC_XHO	0
T_REC_STR	6
T_REC_BST	0
T_REC_XST	0
T_REC_TTP	0
T_REC_THO	0
T_REC_SLD	6
T_REC_ALL	178
T_NUM_TAP	161
T_NUM_BRK	4
T_NUM_HLD	7
T_NUM_SLD	6
T_NUM_ALL	178
T_JUDGE_TAP	165
T_JUDGE_HLD	67
T_JUDGE_SLD	6
T_JUDGE_ALL	238
TTM_EACHPAIRS	26
TTM_SCR_TAP	80500
TTM_SCR_BRK	10400
TTM_SCR_HLD	7000
TTM_SCR_SLD	9000
TTM_SCR_ALL	106900
TTM_SCR_S	103350
TTM_SCR_SS	106500
TTM_RAT_ACV	10037

