VERSION	0.00.00	1.03.00
FES_MODE	0
BPM_DEF	210.000	210.000	210.000	210.000
MET_DEF	4	4
RESOLUTION	384
CLK_DEF	384
COMPATIBLE_CODE	MA2

BPM	0	0	210.000

TAP	2	0	3
TAP	2	48	4
TAP	2	96	3
TAP	2	144	4
TAP	2	192	2
TAP	2	240	5
TAP	2	288	3
TAP	2	336	4
TAP	3	0	1
TAP	3	48	6
TAP	3	96	3
TAP	3	144	4
TAP	3	192	0
TAP	3	240	7
TAP	3	288	1
TAP	3	288	6
TAP	4	0	7
TAP	4	48	0
TAP	4	96	7
TAP	4	144	0
TAP	4	192	6
TAP	4	240	1
TAP	4	288	7
TAP	4	336	0
TAP	5	0	5
TAP	5	48	2
TAP	5	96	7
TAP	5	144	0
TAP	5	192	4
TAP	5	240	3
TAP	5	288	2
TAP	5	288	5
STR	6	0	0
SI_	6	0	0	96	48	4
STR	6	192	7
SI_	6	192	7	96	48	3
STR	7	0	1
SI_	7	0	1	96	48	5
STR	7	192	6
SI_	7	192	6	96	48	2
STR	8	0	1
SI_	8	0	1	96	48	4
TAP	8	96	1
STR	8	192	6
SI_	8	192	6	96	48	3
TAP	8	288	6
TAP	9	0	0
TAP	9	48	7
TAP	9	96	1
TAP	9	144	6
TAP	9	192	0
TAP	9	208	1
TAP	9	224	2
TAP	9	240	3
TAP	9	256	4
TAP	9	272	5
TAP	9	288	6
TAP	9	304	7
TAP	9	320	0
TAP	9	336	1
TAP	9	352	2
STR	9	368	3
SF_	9	368	3	96	208	7
HLD	11	0	1	96
TAP	11	96	3
HLD	11	144	3	96
TAP	11	240	5
HLD	11	288	3	48
HLD	11	336	1	96
TAP	12	48	7
TAP	12	96	6
TAP	12	144	5
TAP	12	192	4
TAP	12	240	3
TAP	12	288	2
TAP	13	0	1
TAP	13	48	3
TAP	13	96	1
TAP	13	144	4
TAP	13	192	1
TAP	13	240	5
TAP	13	288	1
TAP	13	312	2
TAP	13	336	3
TAP	14	48	6
HLD	14	96	6	96
HLD	14	192	1	96
TAP	14	288	3
TAP	15	0	1
TAP	15	96	1
TAP	15	144	2
TAP	15	240	2
TAP	15	288	3
TAP	16	0	3
TAP	16	48	4
TAP	16	144	4
TAP	16	192	5
TAP	16	240	4
TAP	16	288	3
TAP	17	0	6
TAP	17	48	4
TAP	17	96	6
TAP	17	144	3
TAP	17	192	6
TAP	17	240	2
TAP	17	288	6
TAP	17	312	5
TAP	17	336	4
TAP	18	48	1
HLD	18	96	1	96
TAP	18	192	6
TAP	18	240	6
TAP	18	264	5
TAP	18	288	4
TAP	18	336	2
HLD	19	0	6	96
TAP	19	96	4
HLD	19	144	4	96
TAP	19	240	2
HLD	19	288	4	48
HLD	19	336	6	96
TAP	20	48	0
TAP	20	96	1
TAP	20	144	2
TAP	20	192	3
TAP	20	240	4
TAP	20	288	5
TAP	21	0	1
TAP	21	0	6
TAP	21	96	1
TAP	21	144	2
TAP	21	240	2
TAP	21	288	3
TAP	22	0	3
TAP	22	48	4
TAP	22	144	4
TAP	22	192	5
TAP	22	240	4
TAP	22	288	3
TAP	23	0	0
TAP	23	48	6
TAP	23	96	0
TAP	23	144	2
TAP	23	192	0
TAP	23	240	5
TAP	23	288	0
TAP	23	336	3
TAP	24	0	0
TAP	24	48	4
TAP	24	96	0
TAP	24	144	4
TAP	24	192	0
TAP	24	240	2
TAP	24	288	4
TAP	25	0	7
TAP	25	48	1
TAP	25	96	7
TAP	25	144	5
TAP	25	192	7
TAP	25	240	2
TAP	25	288	7
TAP	25	336	4
TAP	26	0	7
TAP	26	48	3
TAP	26	96	7
TAP	26	144	3
TAP	26	192	7
TAP	26	240	5
TAP	26	288	3
STR	27	0	1
SI_	27	0	1	96	96	4
STR	27	96	4
SI_	27	96	4	96	96	7
STR	27	192	7
SI_	27	192	7	96	96	2
STR	27	288	2
SCR	27	288	2	96	96	5
STR	28	0	5
SCR	28	0	5	96	96	0
STR	28	96	0
SLR	28	96	0	96	144	4
TAP	28	192	4
STR	29	0	6
SI_	29	0	6	96	96	3
STR	29	96	3
SI_	29	96	3	96	96	0
STR	29	192	0
SI_	29	192	0	96	96	5
STR	29	288	5
SCL	29	288	5	96	96	2
STR	30	0	2
SCL	30	0	2	96	96	7
STR	30	96	7
SLL	30	96	7	96	144	3
TAP	30	192	3
TAP	31	96	3
HLD	31	96	4	192
TAP	31	192	5
HLD	31	288	3	192
TAP	32	0	2
HLD	32	96	4	192
TAP	32	192	6
HLD	32	288	3	96
HLD	33	0	1	144
HLD	33	144	0	144
TAP	33	288	6
HLD	33	336	6	240
STR	34	192	0
SI_	34	192	0	96	48	4
STR	35	0	6
SCL	35	0	6	96	96	3
STR	35	96	3
SCL	35	96	3	96	96	0
STR	35	192	0
SCL	35	192	0	96	96	5
STR	35	288	5
SI_	35	288	5	96	96	2
STR	36	0	2
SLL	36	0	2	96	96	6
STR	36	96	6
SLL	36	96	6	96	96	2
STR	37	0	1
SCR	37	0	1	96	96	4
STR	37	96	4
SCR	37	96	4	96	96	7
STR	37	192	7
SCR	37	192	7	96	96	2
STR	37	288	2
SI_	37	288	2	96	96	5
STR	38	0	5
SLR	38	0	5	96	96	1
STR	38	96	1
SLR	38	96	1	96	96	5
HLD	39	96	3	192
TAP	39	96	4
TAP	39	192	2
HLD	39	288	4	192
TAP	40	0	5
HLD	40	96	3	192
TAP	40	192	1
HLD	40	288	4	96
HLD	41	0	6	144
HLD	41	144	7	144
TAP	41	288	1
HLD	41	336	1	240
STR	42	192	7
SI_	42	192	7	96	48	3
STR	43	0	1
SI_	43	0	1	96	48	5
TAP	43	96	1
STR	43	192	3
SI_	43	192	3	96	48	7
TAP	43	288	3
STR	44	0	1
SCR	44	0	1	96	48	4
STR	44	96	1
SCL	44	96	1	96	96	5
TAP	44	192	1
STR	45	0	6
SI_	45	0	6	96	48	2
TAP	45	96	6
STR	45	192	4
SI_	45	192	4	96	48	0
TAP	45	288	4
STR	46	0	6
SCL	46	0	6	96	48	3
STR	46	96	6
SCR	46	96	6	96	96	2
TAP	46	192	6
HLD	47	96	3	96
TAP	47	96	4
HLD	47	192	2	96
HLD	47	288	1	96
HLD	48	0	0	96
HLD	48	96	7	96
HLD	48	192	6	96
HLD	48	288	5	96
HLD	49	0	4	144
HLD	49	144	3	144
TAP	49	288	2
HLD	49	336	2	240
STR	50	192	1
SI_	50	192	1	96	48	5
STR	51	96	0
SI_	51	96	0	96	48	4
STR	51	96	7
SI_	51	96	7	96	48	5
TAP	51	192	0
TAP	51	192	7
STR	51	288	0
SI_	51	288	0	96	48	2
STR	51	288	7
SI_	51	288	7	96	48	3
TAP	52	0	0
TAP	52	0	7
STR	52	96	0
SI_	52	96	0	96	48	3
STR	52	96	7
SI_	52	96	7	96	48	4
STR	52	192	0
SCL	52	192	0	96	48	5
STR	52	192	7
SCR	52	192	7	96	48	2
TAP	52	288	0
TAP	52	288	7
STR	53	96	0
SI_	53	96	0	96	48	5
STR	53	96	7
SI_	53	96	7	96	48	5
TAP	53	192	0
TAP	53	192	7
STR	53	288	0
SI_	53	288	0	96	48	2
STR	53	288	7
SI_	53	288	7	96	48	2
TAP	54	0	0
TAP	54	0	7
STR	54	96	0
SI_	54	96	0	96	48	4
STR	54	96	7
SI_	54	96	7	96	48	3
STR	54	192	0
SCL	54	192	0	96	48	4
STR	54	192	7
SCR	54	192	7	96	48	3
TAP	54	288	0
TAP	54	288	7
TAP	55	96	3
HLD	55	96	4	96
HLD	55	192	5	96
HLD	55	288	6	96
HLD	56	0	7	96
HLD	56	96	0	96
HLD	56	192	1	96
HLD	56	288	2	96
HLD	57	0	3	144
HLD	57	144	4	144
TAP	57	288	5
HLD	57	336	5	240
BRK	58	192	6
STR	59	0	0
SLR	59	0	0	96	192	4
STR	59	0	4
SLR	59	0	4	96	192	0
TAP	60	0	3
TAP	60	0	7
TAP	60	144	2
TAP	60	144	6
TAP	60	288	1
TAP	60	288	5
HLD	60	336	0	624
HLD	60	336	4	432
BRK	62	192	6
BRK	62	240	4
BRK	62	288	2
BRK	62	336	0
TAP	63	0	6
TAP	63	48	7
TAP	63	96	6
TAP	63	144	0
TAP	63	144	5
TAP	63	240	2
TAP	63	240	7
TAP	63	336	1
TAP	64	0	0
TAP	64	96	1
TAP	64	96	4
TAP	64	192	2
TAP	64	240	3
TAP	64	288	2
TAP	64	336	3
TAP	64	336	6
TAP	65	48	3
TAP	65	48	4
TAP	65	144	1
TAP	65	144	2
TAP	65	240	5
TAP	65	240	6
STR	65	336	0
SCR	65	336	0	96	192	7
STR	65	336	7
SCL	65	336	7	96	192	0
STR	67	0	3
SLL	67	0	3	96	192	7
STR	67	0	7
SLL	67	0	7	96	192	3
TAP	68	0	0
TAP	68	0	4
TAP	68	144	1
TAP	68	144	5
TAP	68	288	2
TAP	68	288	6
HLD	68	336	3	432
HLD	68	336	7	624
BRK	70	192	1
BRK	70	240	3
BRK	70	288	5
BRK	70	336	7
STR	71	0	0
SF_	71	0	0	96	288	4
TAP	71	0	1
TAP	72	192	3
TAP	72	192	4
TAP	72	336	6
STR	72	336	7
SF_	72	336	7	96	288	3
BRK	75	0	7
BRK	75	12	0
BRK	75	24	1
BRK	75	96	0
BRK	75	108	1
BRK	75	120	2
BRK	75	192	1
BRK	75	204	2
BRK	75	216	3
BRK	76	0	0
BRK	76	12	7
BRK	76	24	6
BRK	76	96	7
BRK	76	108	6
BRK	76	120	5
BRK	76	192	6
BRK	76	204	5
BRK	76	216	4
TAP	77	0	1
TAP	77	48	0
TAP	77	96	1
TAP	77	144	0
STR	77	192	1
SCR	77	192	1	96	48	4
TAP	77	288	1
STR	77	336	6
SCL	77	336	6	96	48	3
TAP	78	48	6
TAP	78	96	1
STR	78	192	1
SI_	78	192	1	96	48	4
TAP	78	288	1
STR	78	336	0
SI_	78	336	0	96	48	5
TAP	79	48	0
TAP	79	96	1
TAP	79	192	3
TAP	79	240	4
TAP	79	288	2
TAP	79	336	5
TAP	80	0	1
TAP	80	48	6
TAP	80	96	0
TAP	80	96	7
TAP	80	192	1
TAP	80	192	3
TAP	80	256	4
TAP	80	256	6
TAP	80	320	2
TAP	80	320	5
TAP	81	0	6
TAP	81	48	7
TAP	81	96	6
TAP	81	144	7
STR	81	192	6
SI_	81	192	6	96	48	1
TAP	81	288	6
STR	81	336	2
SI_	81	336	2	96	48	5
TAP	82	48	2
STR	82	96	7
SI_	82	96	7	96	48	4
TAP	82	192	7
TAP	82	288	0
TAP	82	336	6
BST	83	0	0
SI_	83	0	0	96	48	3
STR	83	96	0
SI_	83	96	0	96	48	5
BST	83	192	0
SI_	83	192	0	96	48	4
STR	83	288	0
SI_	83	288	0	96	48	6
BST	84	0	0
SI_	84	0	0	96	48	2
STR	84	96	0
SI_	84	96	0	96	96	4
BRK	84	192	0
TAP	85	0	6
TAP	85	48	7
TAP	85	96	6
TAP	85	144	7
STR	85	192	6
SCL	85	192	6	96	48	3
TAP	85	288	6
STR	85	336	1
SCR	85	336	1	96	48	4
TAP	86	48	1
TAP	86	96	6
STR	86	192	6
SI_	86	192	6	96	48	3
TAP	86	288	6
STR	86	336	7
SI_	86	336	7	96	48	2
TAP	87	48	7
TAP	87	96	6
TAP	87	192	4
TAP	87	240	3
TAP	87	288	5
TAP	87	336	2
TAP	88	0	6
TAP	88	48	1
TAP	88	96	0
TAP	88	96	7
TAP	88	192	4
TAP	88	192	6
TAP	88	256	1
TAP	88	256	3
TAP	88	320	2
TAP	88	320	5
TAP	89	0	1
TAP	89	48	0
TAP	89	96	1
TAP	89	144	0
STR	89	192	1
SI_	89	192	1	96	48	6
TAP	89	288	1
STR	89	336	5
SI_	89	336	5	96	48	2
TAP	90	48	5
STR	90	96	0
SI_	90	96	0	96	48	3
TAP	90	192	0
TAP	90	288	7
TAP	90	336	1
BST	91	0	7
SI_	91	0	7	96	48	4
STR	91	96	7
SI_	91	96	7	96	48	2
BST	91	192	7
SI_	91	192	7	96	48	3
STR	91	288	7
SI_	91	288	7	96	48	1
BST	92	0	7
SI_	92	0	7	96	48	5
STR	92	96	7
SI_	92	96	7	96	96	3
BRK	92	192	7
TAP	93	0	5
TAP	93	48	4
TAP	93	96	5
TAP	93	144	4
STR	93	192	5
SCR	93	192	5	96	48	0
TAP	93	288	5
STR	93	336	4
SCL	93	336	4	96	48	1
TAP	94	48	4
TAP	94	96	7
STR	94	192	7
SI_	94	192	7	96	48	3
TAP	94	288	7
STR	94	336	5
SI_	94	336	5	96	48	1
TAP	95	48	5
TAP	95	96	3
STR	95	192	3
SI_	95	192	3	96	48	7
TAP	95	288	3
STR	95	336	1
SCR	95	336	1	96	48	4
TAP	96	48	1
TAP	96	96	7
TAP	96	192	0
TAP	96	192	1
TAP	96	256	6
TAP	96	256	7
TAP	96	320	0
TAP	96	320	7
TAP	97	0	1
TAP	97	48	0
TAP	97	96	1
TAP	97	144	0
STR	97	192	2
SI_	97	192	2	96	48	5
TAP	97	288	2
STR	97	336	1
SI_	97	336	1	96	48	6
TAP	98	48	1
STR	98	96	3
SI_	98	96	3	96	48	0
TAP	98	192	3
TAP	98	288	6
TAP	98	336	7
BST	99	0	6
SI_	99	0	6	96	48	2
STR	99	96	0
SI_	99	96	0	96	48	4
TAP	99	96	6
BRK	99	192	0
BST	99	192	7
SI_	99	192	7	96	24	3
STR	99	288	1
SI_	99	288	1	96	48	5
TAP	99	288	7
BRK	100	0	1
BST	100	0	6
SI_	100	0	6	96	48	2
STR	100	96	4
SI_	100	96	4	96	48	0
TAP	100	96	6
BRK	100	192	4
TAP	101	0	2
TAP	101	48	3
TAP	101	96	2
TAP	101	144	3
STR	101	192	2
SCL	101	192	2	96	48	7
TAP	101	288	2
STR	101	336	3
SCR	101	336	3	96	48	6
TAP	102	48	3
TAP	102	96	0
STR	102	192	0
SI_	102	192	0	96	48	4
TAP	102	288	0
STR	102	336	2
SI_	102	336	2	96	48	6
TAP	103	48	2
TAP	103	96	4
STR	103	192	4
SI_	103	192	4	96	48	0
TAP	103	288	4
STR	103	336	6
SCL	103	336	6	96	48	3
TAP	104	48	6
TAP	104	96	0
TAP	104	192	6
TAP	104	192	7
TAP	104	256	0
TAP	104	256	1
TAP	104	320	0
TAP	104	320	7
TAP	105	0	6
TAP	105	48	7
TAP	105	96	6
TAP	105	144	7
STR	105	192	5
SI_	105	192	5	96	48	2
TAP	105	288	5
STR	105	336	6
SI_	105	336	6	96	48	1
TAP	106	48	6
STR	106	96	4
SI_	106	96	4	96	48	7
TAP	106	192	4
TAP	106	288	1
TAP	106	336	0
BST	107	0	1
SI_	107	0	1	96	48	5
TAP	107	96	1
STR	107	96	7
SI_	107	96	7	96	48	3
BST	107	192	0
SI_	107	192	0	96	24	4
BRK	107	192	7
TAP	107	288	0
STR	107	288	6
SI_	107	288	6	96	48	2
BST	108	0	1
SI_	108	0	1	96	48	5
BRK	108	0	6
TAP	108	96	1
STR	108	96	3
SI_	108	96	3	96	48	7
BST	108	192	2
SI_	108	192	2	96	48	5
BRK	108	192	3
TAP	108	288	2
STR	108	288	6
SI_	108	288	6	96	48	1
BST	109	0	0
SF_	109	0	0	96	288	4
BRK	109	0	6
TAP	110	192	3
TAP	110	192	4
TAP	110	256	0
TAP	110	256	2
TAP	110	320	5
TAP	110	320	7
STR	111	0	0
SLR	111	0	0	96	192	4
STR	111	192	4
SLR	111	192	4	96	192	0
BRK	112	0	0
TAP	112	192	0
TAP	112	192	7
TAP	112	256	4
TAP	112	256	6
TAP	112	320	1
TAP	112	320	3
TAP	113	0	0
TAP	113	48	7
TAP	113	96	1
TAP	113	144	6
TAP	113	192	2
TAP	113	240	5
TAP	113	288	3
TAP	113	336	4
TAP	114	48	4
TAP	114	96	3
TAP	114	144	5
TAP	114	192	2
TAP	114	240	6
BST	114	336	0
SI_	114	336	0	96	48	3
BRK	114	336	3
TAP	115	48	0
TAP	115	48	4
BST	115	144	0
SI_	115	144	0	96	48	5
BRK	115	144	5
TAP	115	240	0
TAP	115	240	6
BRK	115	336	4
BST	115	336	7
SI_	115	336	7	96	48	4
TAP	116	48	3
TAP	116	48	7
BRK	116	144	2
BST	116	144	7
SI_	116	144	7	96	48	2
TAP	116	240	1
TAP	116	240	7
TAP	117	0	4
HLD	117	0	5	288
TAP	117	96	3
TAP	117	192	2
TAP	117	288	1
TAP	118	0	0
TAP	118	0	4
TAP	118	96	3
TAP	118	96	7
TAP	118	192	1
TAP	118	192	5
TAP	118	288	2
TAP	118	288	6
TAP	118	336	2
TAP	118	336	6
TAP	119	48	1
TAP	119	96	0
TAP	119	144	2
TAP	119	192	6
TAP	119	240	7
TAP	119	288	5
HLD	119	336	3	96
TAP	120	48	4
TAP	120	96	3
TAP	120	144	4
TAP	120	192	1
TAP	120	192	2
TAP	120	256	5
TAP	120	256	6
TAP	120	320	0
TAP	120	320	7
TAP	121	0	1
TAP	121	48	1
TAP	121	96	7
TAP	121	144	3
TAP	121	192	6
TAP	121	240	6
TAP	121	288	0
TAP	121	336	4
TAP	122	0	1
TAP	122	48	2
TAP	122	96	3
TAP	122	144	6
TAP	122	192	5
TAP	122	240	4
TAP	122	288	0
TAP	122	336	7
STR	123	0	1
SCR	123	0	1	96	48	4
STR	123	144	6
SCL	123	144	6	96	48	3
STR	123	288	0
SSL	123	288	0	96	96	4
TAP	124	48	6
TAP	124	192	0
TAP	124	192	7
STR	124	240	0
SI_	124	240	0	96	48	5
STR	124	240	7
SI_	124	240	7	96	48	2
TAP	124	288	0
TAP	124	288	7
TAP	124	336	0
TAP	124	336	7

T_REC_TAP	430
T_REC_BRK	41
T_REC_XTP	0
T_REC_HLD	51
T_REC_XHO	0
T_REC_STR	118
T_REC_BST	18
T_REC_XST	0
T_REC_TTP	0
T_REC_THO	0
T_REC_SLD	136
T_REC_ALL	794
T_NUM_TAP	548
T_NUM_BRK	59
T_NUM_HLD	51
T_NUM_SLD	136
T_NUM_ALL	794
T_JUDGE_TAP	607
T_JUDGE_HLD	172
T_JUDGE_SLD	136
T_JUDGE_ALL	915
TTM_EACHPAIRS	96
TTM_SCR_TAP	274000
TTM_SCR_BRK	153400
TTM_SCR_HLD	51000
TTM_SCR_SLD	204000
TTM_SCR_ALL	682400
TTM_SCR_S	656250
TTM_SCR_SS	676500
TTM_RAT_ACV	10087

