VERSION	0.00.00	1.03.00
FES_MODE	0
BPM_DEF	210.000	210.000	210.000	210.000
MET_DEF	4	4
RESOLUTION	384
CLK_DEF	384
COMPATIBLE_CODE	MA2

BPM	0	0	210.000
MET	0	0	4	4

TAP	2	0	0
TAP	2	96	0
TAP	2	192	1
TAP	2	288	1
TAP	3	0	2
TAP	3	96	2
HLD	3	192	3	96
TAP	4	0	7
TAP	4	96	7
TAP	4	192	6
TAP	4	288	6
TAP	5	0	5
TAP	5	96	5
HLD	5	192	4	96
TAP	6	0	2
TAP	6	0	5
TAP	6	192	2
TAP	6	192	5
TAP	7	0	2
TAP	7	0	5
TAP	7	192	2
TAP	7	192	5
TAP	8	0	1
TAP	8	0	6
TAP	8	96	1
TAP	8	96	6
TAP	8	192	1
TAP	8	192	6
TAP	8	288	1
TAP	8	288	6
TAP	9	0	0
TAP	9	48	7
TAP	9	96	0
TAP	9	144	7
TAP	9	192	1
TAP	9	240	6
TAP	9	288	1
TAP	9	336	6
HLD	11	0	1	96
TAP	11	96	3
HLD	11	192	6	96
TAP	11	288	4
HLD	12	0	0	96
TAP	12	96	2
TAP	12	192	0
TAP	12	240	7
TAP	12	288	0
HLD	13	0	6	96
TAP	13	96	4
HLD	13	192	1	96
TAP	13	288	3
HLD	14	0	7	96
TAP	14	96	5
TAP	14	192	7
TAP	14	240	0
TAP	14	288	7
TAP	15	0	2
TAP	15	96	2
TAP	15	96	3
TAP	15	192	5
TAP	15	288	4
TAP	15	288	5
TAP	16	0	1
TAP	16	96	1
TAP	16	96	2
TAP	16	192	6
TAP	16	288	5
TAP	16	288	6
TAP	17	0	0
TAP	17	96	1
TAP	17	192	2
TAP	17	288	3
TAP	18	0	4
TAP	18	0	5
TAP	18	96	6
TAP	18	96	7
TAP	18	192	0
TAP	18	192	1
TAP	18	288	2
TAP	18	288	3
HLD	19	0	6	96
TAP	19	96	4
HLD	19	192	1	96
TAP	19	288	3
HLD	20	0	7	96
TAP	20	96	5
TAP	20	192	7
TAP	20	240	0
TAP	20	288	7
TAP	21	0	0
TAP	21	96	6
TAP	21	192	1
TAP	21	288	7
TAP	22	0	4
TAP	22	0	5
TAP	22	96	2
TAP	22	96	3
TAP	22	192	0
TAP	22	192	1
TAP	22	288	6
TAP	22	288	7
TAP	23	0	5
TAP	23	96	4
TAP	23	96	5
TAP	23	192	2
TAP	23	288	2
TAP	23	288	3
TAP	24	0	6
TAP	24	96	5
TAP	24	96	6
TAP	24	192	1
TAP	24	288	1
TAP	24	288	2
TAP	25	0	5
TAP	25	48	4
TAP	25	96	5
TAP	25	144	4
TAP	25	192	6
TAP	25	240	4
TAP	25	288	6
STR	26	0	1
SXR	26	0	1	96	192	5
TAP	27	0	1
TAP	27	96	0
TAP	27	192	1
TAP	27	288	3
TAP	27	288	4
TAP	28	0	6
TAP	28	96	7
TAP	28	192	6
TAP	28	288	3
TAP	28	288	4
TAP	29	0	1
TAP	29	96	0
TAP	29	192	7
TAP	29	288	6
STR	30	0	5
SCR	30	0	5	96	144	2
TAP	31	0	2
TAP	31	96	1
TAP	31	96	3
TAP	31	192	5
TAP	31	288	4
TAP	31	288	6
TAP	32	0	1
TAP	32	96	0
TAP	32	96	2
TAP	32	192	6
TAP	32	288	5
TAP	32	288	7
TAP	33	0	6
TAP	33	96	7
TAP	33	192	0
TAP	33	288	1
STR	34	0	2
SCL	34	0	2	96	192	5
TAP	35	0	0
TAP	35	96	7
TAP	35	192	0
TAP	35	288	4
TAP	35	288	5
TAP	36	0	7
TAP	36	96	0
TAP	36	192	7
TAP	36	288	2
TAP	36	288	3
TAP	37	0	4
TAP	37	96	5
TAP	37	192	6
TAP	37	288	7
STR	38	0	0
SCL	38	0	0	96	192	3
TAP	39	0	6
TAP	39	96	5
TAP	39	96	7
TAP	39	192	1
TAP	39	288	0
TAP	39	288	2
TAP	40	0	5
TAP	40	96	4
TAP	40	96	6
TAP	40	192	2
TAP	40	288	1
TAP	40	288	3
TAP	41	0	2
TAP	41	96	1
TAP	41	192	0
TAP	41	288	7
STR	42	0	6
SSL	42	0	6	96	192	2
TAP	43	0	3
TAP	43	0	5
TAP	43	96	4
TAP	43	192	3
TAP	43	192	5
TAP	43	288	6
TAP	44	0	2
TAP	44	0	4
TAP	44	96	3
TAP	44	192	2
TAP	44	192	4
TAP	44	288	1
TAP	45	0	7
TAP	45	96	0
TAP	45	192	1
TAP	45	288	2
STR	46	0	3
SXL	46	0	3	96	192	7
TAP	47	0	0
TAP	47	0	6
TAP	47	96	7
TAP	47	192	0
TAP	47	192	6
TAP	47	288	5
TAP	48	0	1
TAP	48	0	7
TAP	48	96	0
TAP	48	192	1
TAP	48	192	7
TAP	48	288	2
TAP	49	0	4
TAP	49	96	3
TAP	49	192	2
TAP	49	288	1
STR	50	0	0
SUR	50	0	0	96	192	3
TAP	51	0	2
TAP	51	0	4
TAP	51	96	3
TAP	51	192	2
TAP	51	192	4
TAP	51	288	1
TAP	52	0	3
TAP	52	0	5
TAP	52	96	4
TAP	52	192	3
TAP	52	192	5
TAP	52	288	6
TAP	53	0	0
TAP	53	96	7
TAP	53	192	6
TAP	53	288	5
STR	54	0	4
SXR	54	0	4	96	192	0
TAP	55	0	1
TAP	55	0	7
TAP	55	96	0
TAP	55	192	1
TAP	55	192	7
TAP	55	288	2
TAP	56	0	0
TAP	56	0	6
TAP	56	96	7
TAP	56	192	0
TAP	56	192	6
TAP	56	288	5
TAP	57	0	3
TAP	57	96	2
TAP	57	192	1
STR	57	288	0
SI_	57	288	0	96	192	4
STR	57	288	7
SI_	57	288	7	96	192	3
STR	59	0	0
SCR	59	0	0	96	192	4
STR	59	0	7
SXR	59	0	7	96	192	5
HLD	60	0	6	144
HLD	60	144	7	144
TAP	60	288	0
STR	60	336	0
SXL	60	336	0	96	240	5
TAP	62	192	1
TAP	62	240	0
TAP	62	288	7
TAP	62	336	6
TAP	63	0	2
TAP	63	96	3
TAP	63	96	4
TAP	63	192	5
TAP	63	288	3
TAP	63	288	4
TAP	64	0	1
TAP	64	96	3
TAP	64	96	4
TAP	64	192	6
TAP	64	288	3
TAP	64	288	4
STR	65	0	0
SI_	65	0	0	96	48	4
STR	65	192	6
SI_	65	192	6	96	48	2
STR	66	0	0
SCR	66	0	0	96	192	7
STR	67	0	0
SXL	67	0	0	96	144	2
STR	67	0	7
SCL	67	0	7	96	144	3
HLD	68	0	1	144
HLD	68	144	0	144
TAP	68	288	7
STR	68	336	7
SXR	68	336	7	96	240	2
TAP	70	0	0
TAP	70	0	7
TAP	70	192	1
TAP	70	240	6
TAP	70	288	0
TAP	70	336	7
STR	71	0	2
SV_	71	0	2	96	288	0
STR	71	0	6
SV_	71	0	6	96	288	4
TAP	72	192	0
TAP	72	192	7
STR	72	336	1
SV_	72	336	1	96	288	3
STR	72	336	5
SV_	72	336	5	96	288	7
TAP	74	192	3
TAP	74	192	4
TAP	74	240	2
TAP	74	240	5
TAP	75	0	4
TAP	75	0	5
TAP	75	96	2
TAP	75	96	3
BRK	75	192	0
BRK	75	192	7
TAP	75	336	5
TAP	75	336	6
TAP	76	96	1
TAP	76	96	2
BRK	76	192	0
BRK	76	192	7
BRK	76	288	1
BRK	76	288	6
TAP	77	0	3
TAP	77	0	4
TAP	77	96	0
TAP	77	96	7
TAP	77	192	2
TAP	77	240	3
TAP	77	288	2
HLD	78	0	5	96
HLD	78	96	4	96
HLD	78	192	3	96
HLD	78	288	2	96
TAP	79	0	1
TAP	79	96	0
TAP	79	96	7
TAP	79	192	5
TAP	79	192	6
STR	79	288	3
SI_	79	288	3	96	96	7
STR	79	288	4
SI_	79	288	4	96	96	0
TAP	80	192	3
TAP	80	192	4
TAP	80	256	3
TAP	80	256	4
TAP	80	320	3
TAP	80	320	4
HLD	81	0	5	96
HLD	81	96	6	96
HLD	81	192	7	96
TAP	81	288	0
HLD	82	0	2	96
HLD	82	96	1	96
HLD	82	192	0	96
TAP	82	288	7
STR	83	0	6
SI_	83	0	6	96	96	2
STR	83	192	0
SI_	83	192	0	96	96	4
STR	84	0	5
SI_	84	0	5	96	96	1
BRK	84	192	7
HLD	85	0	4	96
HLD	85	96	5	96
HLD	85	192	6	96
TAP	85	288	7
TAP	86	0	0
TAP	86	0	1
TAP	86	96	2
TAP	86	96	3
TAP	86	192	4
TAP	86	192	5
TAP	86	288	6
TAP	86	288	7
HLD	87	0	5	96
HLD	87	96	6	96
HLD	87	192	7	96
TAP	87	288	0
TAP	88	0	2
TAP	88	0	3
TAP	88	96	4
TAP	88	96	5
TAP	88	192	0
TAP	88	192	7
TAP	88	256	0
TAP	88	256	7
TAP	88	320	0
TAP	88	320	7
TAP	89	0	1
TAP	89	96	7
TAP	89	192	5
TAP	89	288	3
TAP	90	0	0
TAP	90	96	2
TAP	90	192	4
TAP	90	288	6
STR	91	0	1
SXR	91	0	1	96	192	3
STR	92	0	5
SXR	92	0	5	96	192	7
TAP	93	0	3
TAP	93	0	4
TAP	93	96	0
TAP	93	96	7
TAP	93	192	5
TAP	93	240	4
TAP	93	288	5
HLD	94	0	2	96
HLD	94	96	3	96
HLD	94	192	4	96
HLD	94	288	5	96
TAP	95	0	6
TAP	95	96	0
TAP	95	96	7
TAP	95	192	1
TAP	95	192	2
STR	95	288	3
SI_	95	288	3	96	96	7
STR	95	288	4
SI_	95	288	4	96	96	0
TAP	96	192	3
TAP	96	192	4
TAP	96	256	3
TAP	96	256	4
TAP	96	320	3
TAP	96	320	4
HLD	97	0	2	96
HLD	97	96	1	96
HLD	97	192	0	96
TAP	97	288	7
HLD	98	0	5	96
HLD	98	96	6	96
HLD	98	192	7	96
TAP	98	288	0
STR	99	0	1
SI_	99	0	1	96	96	5
STR	99	192	7
SI_	99	192	7	96	96	3
STR	100	0	2
SI_	100	0	2	96	96	6
BRK	100	192	0
HLD	101	0	3	96
HLD	101	96	2	96
HLD	101	192	1	96
TAP	101	288	0
TAP	102	0	6
TAP	102	0	7
TAP	102	96	4
TAP	102	96	5
TAP	102	192	2
TAP	102	192	3
TAP	102	288	0
TAP	102	288	1
HLD	103	0	2	96
HLD	103	96	1	96
HLD	103	192	0	96
TAP	103	288	7
TAP	104	0	4
TAP	104	0	5
TAP	104	96	2
TAP	104	96	3
TAP	104	192	0
TAP	104	192	7
TAP	104	256	0
TAP	104	256	7
TAP	104	320	0
TAP	104	320	7
STR	105	0	4
SF_	105	0	4	96	480	0
HLD	106	336	0	624
HLD	106	336	5	144
HLD	107	192	2	96
HLD	108	0	7	96
TAP	108	192	3
BRK	109	0	2
BRK	109	0	5
TAP	109	96	3
TAP	109	192	2
TAP	109	192	5
TAP	109	288	4
TAP	110	0	1
TAP	110	0	6
TAP	110	96	3
TAP	110	192	1
TAP	110	192	6
TAP	110	288	4
TAP	111	0	0
TAP	111	0	7
TAP	111	96	2
TAP	111	192	0
TAP	111	192	7
TAP	111	288	5
TAP	112	0	0
TAP	112	0	7
TAP	112	96	1
TAP	112	96	6
BRK	112	192	2
BRK	112	192	5
BRK	112	256	2
BRK	112	256	5
BRK	112	320	2
BRK	112	320	5
TAP	113	0	1
TAP	113	48	1
TAP	113	96	0
TAP	113	144	0
TAP	113	192	1
TAP	113	240	0
TAP	113	288	1
TAP	114	0	6
TAP	114	48	6
TAP	114	96	7
TAP	114	144	7
TAP	114	192	6
TAP	114	240	7
TAP	114	288	6
STR	115	0	0
SUR	115	0	0	96	48	4
STR	115	192	7
SUL	115	192	7	96	48	3
STR	116	0	1
SCR	116	0	1	96	48	4
STR	116	192	5
SCR	116	192	5	96	48	0
HLD	117	0	1	288
TAP	117	96	0
TAP	117	192	2
TAP	117	288	0
HLD	118	0	6	288
TAP	118	96	7
TAP	118	192	5
TAP	118	288	7
HLD	119	0	3	480
TAP	119	96	1
TAP	119	192	0
TAP	119	288	7
TAP	120	0	6
TAP	120	96	5
BRK	120	192	1
BRK	120	192	6
BRK	120	256	1
BRK	120	256	6
BRK	120	320	1
BRK	120	320	6
TAP	121	0	0
TAP	121	48	0
TAP	121	96	7
TAP	121	144	7
TAP	121	192	1
TAP	121	240	6
TAP	121	288	1
TAP	122	0	4
TAP	122	48	4
TAP	122	96	3
TAP	122	144	3
TAP	122	192	5
TAP	122	240	2
TAP	122	288	5
STR	123	0	0
SI_	123	0	0	96	48	4
STR	123	144	6
SI_	123	144	6	96	48	2
STR	123	288	1
SI_	123	288	1	96	48	5
TAP	124	48	7
TAP	124	192	1
TAP	124	240	0
TAP	124	288	7
BRK	124	336	6

T_REC_TAP	422
T_REC_BRK	23
T_REC_XTP	0
T_REC_HLD	54
T_REC_XHO	0
T_REC_STR	43
T_REC_BST	0
T_REC_XST	0
T_REC_TTP	0
T_REC_THO	0
T_REC_SLD	43
T_REC_ALL	585
T_NUM_TAP	465
T_NUM_BRK	23
T_NUM_HLD	54
T_NUM_SLD	43
T_NUM_ALL	585
T_JUDGE_TAP	488
T_JUDGE_HLD	140
T_JUDGE_SLD	43
T_JUDGE_ALL	671
TTM_EACHPAIRS	121
TTM_SCR_TAP	232500
TTM_SCR_BRK	59800
TTM_SCR_HLD	54000
TTM_SCR_SLD	64500
TTM_SCR_ALL	410800
TTM_SCR_S	396250
TTM_SCR_SS	408500
TTM_RAT_ACV	10056

