VERSION	0.00.00	1.03.00
FES_MODE	0
BPM_DEF	210.000	210.000	210.000	210.000
MET_DEF	4	4
RESOLUTION	384
CLK_DEF	384
COMPATIBLE_CODE	MA2

BPM	0	0	210.000
MET	0	0	4	4

TAP	6	0	3
TAP	6	0	4
TAP	6	192	3
TAP	6	192	4
TAP	7	0	2
TAP	7	0	5
TAP	7	192	2
TAP	7	192	5
TAP	8	0	1
TAP	8	96	1
TAP	8	192	0
TAP	8	288	0
TAP	9	0	7
TAP	9	96	7
TAP	9	192	6
TAP	9	288	6
HLD	11	0	5	192
TAP	11	192	4
TAP	12	0	3
TAP	12	96	2
TAP	12	192	1
HLD	13	0	2	192
TAP	13	192	3
TAP	14	0	4
TAP	14	96	5
TAP	14	192	6
HLD	15	0	5	192
TAP	15	192	4
TAP	16	0	3
TAP	16	96	2
TAP	16	192	1
TAP	16	192	4
HLD	17	0	2	192
TAP	17	192	3
TAP	18	0	4
TAP	18	96	5
TAP	18	192	3
TAP	18	192	6
HLD	19	0	7	192
TAP	19	192	0
TAP	20	0	1
TAP	20	96	0
TAP	20	192	7
TAP	20	288	6
HLD	21	0	0	192
TAP	21	192	7
TAP	22	0	6
TAP	22	96	7
TAP	22	192	0
TAP	22	288	1
HLD	23	0	2	192
HLD	23	192	3	192
TAP	24	0	2
TAP	24	96	2
TAP	24	192	3
TAP	24	288	4
HLD	25	0	5	192
HLD	25	192	4	192
TAP	26	0	5
TAP	26	96	5
TAP	26	192	4
TAP	26	288	3
HLD	27	0	2	192
HLD	27	192	3	192
TAP	28	0	1
TAP	28	96	1
TAP	28	192	0
TAP	28	192	1
HLD	29	0	5	192
HLD	29	192	4	192
TAP	30	0	6
TAP	30	96	6
TAP	30	192	6
TAP	30	192	7
TAP	31	0	1
TAP	31	96	1
TAP	31	192	2
TAP	31	288	2
TAP	32	0	3
TAP	32	96	3
TAP	32	192	2
TAP	32	192	4
HLD	33	0	5	192
HLD	33	192	3	192
HLD	34	0	4	192
TAP	34	192	3
TAP	35	0	5
TAP	35	96	5
TAP	35	192	6
TAP	35	288	6
TAP	36	0	7
TAP	36	96	7
TAP	36	192	0
TAP	36	192	1
STR	37	0	2
SCL	37	0	2	96	192	7
STR	38	0	6
SCL	38	0	6	96	192	3
TAP	39	0	2
TAP	39	96	2
TAP	39	192	1
TAP	39	288	1
TAP	40	0	0
TAP	40	96	0
TAP	40	192	6
TAP	40	192	7
STR	41	0	5
SCR	41	0	5	96	192	0
STR	42	0	1
SCR	42	0	1	96	192	4
HLD	43	0	5	192
HLD	43	192	4	192
TAP	44	0	6
TAP	44	96	6
TAP	44	192	5
TAP	44	192	7
HLD	45	0	2	192
HLD	45	192	3	192
TAP	46	0	1
TAP	46	96	1
TAP	46	192	0
TAP	46	192	2
TAP	47	0	6
TAP	47	96	6
TAP	47	192	5
TAP	47	288	5
TAP	48	0	4
TAP	48	96	4
TAP	48	192	3
TAP	48	192	5
HLD	49	0	2	192
HLD	49	192	4	192
HLD	50	0	3	192
TAP	50	192	4
TAP	51	0	2
TAP	51	96	2
TAP	51	192	1
TAP	51	288	1
TAP	52	0	0
TAP	52	96	0
TAP	52	192	6
TAP	52	192	7
STR	53	0	5
SCR	53	0	5	96	192	0
STR	54	0	1
SCR	54	0	1	96	192	4
TAP	55	0	5
TAP	55	96	5
TAP	55	192	6
TAP	55	288	6
TAP	56	0	7
TAP	56	96	7
TAP	56	192	0
TAP	56	192	1
STR	57	0	2
SCL	57	0	2	96	192	7
STR	58	0	6
SCL	58	0	6	96	192	3
HLD	59	0	2	192
TAP	59	192	3
HLD	60	0	3	192
TAP	60	192	4
HLD	61	0	4	192
TAP	61	192	5
TAP	62	0	6
TAP	62	0	7
TAP	62	192	3
TAP	62	192	4
TAP	62	288	3
TAP	62	288	4
STR	63	0	5
SI_	63	0	5	96	144	3
STR	64	0	1
SI_	64	0	1	96	144	3
STR	65	0	7
SI_	65	0	7	96	192	3
TAP	66	0	1
TAP	66	96	2
TAP	66	192	3
TAP	66	288	4
HLD	67	0	5	192
TAP	67	192	4
HLD	68	0	4	192
TAP	68	192	3
HLD	69	0	3	192
TAP	69	192	2
TAP	70	0	0
TAP	70	0	1
TAP	70	192	3
TAP	70	192	4
TAP	70	288	3
TAP	70	288	4
STR	71	0	2
SI_	71	0	2	96	144	4
STR	72	0	6
SI_	72	0	6	96	144	4
STR	73	0	0
SI_	73	0	0	96	192	4
TAP	74	0	6
TAP	74	96	5
TAP	74	192	4
TAP	74	288	3
BRK	75	0	2
BRK	75	96	1
BRK	75	192	0
BRK	75	192	7
BRK	76	0	5
BRK	76	96	6
BRK	76	192	0
BRK	76	192	7
TAP	77	0	1
TAP	77	96	1
TAP	77	192	2
TAP	77	288	2
TAP	78	0	3
TAP	78	96	3
TAP	78	192	2
TAP	78	192	4
TAP	79	0	5
TAP	79	96	5
TAP	79	192	4
TAP	79	288	4
TAP	80	0	3
TAP	80	96	3
HLD	80	192	2	96
HLD	80	192	4	96
TAP	81	0	1
TAP	81	96	1
TAP	81	192	0
TAP	81	288	0
TAP	82	0	7
TAP	82	96	7
TAP	82	192	6
TAP	82	288	6
HLD	83	0	5	192
HLD	83	192	3	192
HLD	84	0	4	192
TAP	84	192	1
TAP	85	0	6
TAP	85	96	6
TAP	85	192	5
TAP	85	288	5
TAP	86	0	4
TAP	86	96	4
TAP	86	192	3
TAP	86	192	5
TAP	87	0	2
TAP	87	96	2
TAP	87	192	3
TAP	87	288	3
TAP	88	0	4
TAP	88	96	4
HLD	88	192	3	96
HLD	88	192	5	96
TAP	89	0	6
TAP	89	96	6
TAP	89	192	7
TAP	89	288	7
TAP	90	0	0
TAP	90	96	0
TAP	90	192	1
TAP	90	288	1
HLD	91	0	2	192
HLD	91	192	4	192
HLD	92	0	3	192
TAP	92	192	6
TAP	93	0	1
TAP	93	96	1
TAP	93	192	0
TAP	93	288	0
TAP	94	0	7
TAP	94	96	7
TAP	94	192	0
TAP	94	192	6
TAP	95	0	6
TAP	95	96	6
TAP	95	192	7
TAP	95	288	7
TAP	96	0	0
TAP	96	96	0
HLD	96	192	1	96
HLD	96	192	7	96
TAP	97	0	2
TAP	97	96	2
TAP	97	192	3
TAP	97	288	3
TAP	98	0	4
TAP	98	96	4
TAP	98	192	5
TAP	98	288	5
HLD	99	0	6	192
HLD	99	192	0	192
HLD	100	0	7	192
TAP	100	192	0
TAP	101	0	6
TAP	101	96	6
TAP	101	192	7
TAP	101	288	7
TAP	102	0	0
TAP	102	96	0
TAP	102	192	1
TAP	102	192	7
TAP	103	0	1
TAP	103	96	1
TAP	103	192	0
TAP	103	288	0
TAP	104	0	7
TAP	104	96	7
HLD	104	192	0	96
HLD	104	192	6	96
HLD	105	0	7	576
BRK	106	192	0
HLD	107	0	2	192
HLD	107	192	7	192
HLD	108	0	0	192
HLD	108	192	5	192
BST	109	0	6
SXL	109	0	6	96	528	1
TAP	111	0	0
TAP	111	96	0
TAP	111	192	1
TAP	111	288	1
TAP	112	0	2
TAP	112	96	2
HLD	112	192	3	96
HLD	112	192	4	96
TAP	113	0	5
TAP	113	96	5
TAP	113	192	6
TAP	113	288	6
TAP	114	0	7
TAP	114	96	7
TAP	114	192	0
TAP	114	192	7
STR	115	0	1
SI_	115	0	1	96	96	3
STR	115	192	7
SI_	115	192	7	96	96	5
STR	116	0	0
SI_	116	0	0	96	144	4
TAP	117	0	7
TAP	117	96	7
TAP	117	192	6
TAP	117	288	6
TAP	118	0	5
TAP	118	96	5
HLD	118	192	3	96
HLD	118	192	4	96
TAP	119	0	2
TAP	119	96	2
TAP	119	192	1
TAP	119	288	1
TAP	120	0	0
TAP	120	96	0
TAP	120	192	0
TAP	120	192	7
STR	121	0	6
SI_	121	0	6	96	96	4
STR	121	192	0
SI_	121	192	0	96	96	2
STR	122	0	7
SI_	122	0	7	96	144	3
HLD	123	0	1	192
HLD	123	192	7	192
HLD	124	0	0	192
TAP	124	192	7
TAP	124	288	1
TAP	124	288	6

T_REC_TAP	258
T_REC_BRK	9
T_REC_XTP	0
T_REC_HLD	59
T_REC_XHO	0
T_REC_STR	20
T_REC_BST	1
T_REC_XST	0
T_REC_TTP	0
T_REC_THO	0
T_REC_SLD	21
T_REC_ALL	368
T_NUM_TAP	278
T_NUM_BRK	10
T_NUM_HLD	59
T_NUM_SLD	21
T_NUM_ALL	368
T_JUDGE_TAP	288
T_JUDGE_HLD	220
T_JUDGE_SLD	21
T_JUDGE_ALL	529
TTM_EACHPAIRS	37
TTM_SCR_TAP	139000
TTM_SCR_BRK	26000
TTM_SCR_HLD	59000
TTM_SCR_SLD	31500
TTM_SCR_ALL	255500
TTM_SCR_S	246900
TTM_SCR_SS	254500
TTM_RAT_ACV	10039

