VERSION	0.00.00	1.03.00
FES_MODE	0
BPM_DEF	210.000	210.000	210.000	210.000
MET_DEF	4	4
RESOLUTION	384
CLK_DEF	384
COMPATIBLE_CODE	MA2

BPM	0	0	210.000
MET	0	0	4	4

TAP	6	0	0
TAP	6	192	0
TAP	7	0	0
TAP	8	0	7
TAP	8	192	7
TAP	9	0	7
TAP	9	192	7
TAP	11	0	0
TAP	11	192	0
TAP	12	0	0
TAP	13	0	1
TAP	13	192	1
TAP	14	0	1
TAP	15	0	2
TAP	15	192	2
TAP	16	0	2
TAP	17	0	3
TAP	17	192	3
TAP	18	0	3
TAP	18	0	4
TAP	19	0	4
TAP	19	192	4
TAP	20	0	4
TAP	21	0	5
TAP	21	192	5
TAP	22	0	5
TAP	23	0	6
TAP	23	192	6
TAP	24	0	6
TAP	25	0	7
TAP	25	192	7
TAP	26	0	0
TAP	26	0	7
TAP	27	0	6
TAP	27	192	6
TAP	28	0	6
TAP	28	0	7
TAP	29	0	5
TAP	29	192	5
TAP	30	0	4
TAP	30	0	5
TAP	31	0	2
TAP	31	192	2
TAP	32	0	2
TAP	32	0	3
HLD	33	0	0	384
HLD	33	0	1	384
TAP	35	0	1
TAP	35	192	1
TAP	36	0	0
TAP	36	0	1
TAP	37	0	2
TAP	37	192	2
TAP	38	0	2
TAP	38	0	3
TAP	39	0	5
TAP	39	192	5
TAP	40	0	4
TAP	40	0	5
HLD	41	0	6	384
HLD	41	0	7	384
TAP	43	0	7
TAP	43	192	7
TAP	44	0	6
TAP	44	192	6
TAP	45	0	5
TAP	45	192	5
TAP	46	0	4
TAP	46	0	5
TAP	47	0	3
TAP	47	192	3
TAP	48	0	2
TAP	48	192	2
TAP	49	0	1
TAP	49	192	1
TAP	50	0	0
TAP	50	0	1
TAP	51	0	0
TAP	51	192	0
TAP	52	0	1
TAP	52	192	1
TAP	53	0	2
TAP	53	192	2
TAP	54	0	2
TAP	54	0	3
TAP	55	0	4
TAP	55	192	4
TAP	56	0	5
TAP	56	192	5
TAP	57	0	6
TAP	57	192	6
TAP	58	0	6
TAP	58	0	7
STR	59	0	7
SI_	59	0	7	96	288	4
HLD	61	0	0	384
STR	63	0	0
SI_	63	0	0	96	288	3
HLD	65	0	7	384
STR	67	0	6
SI_	67	0	6	96	288	3
HLD	69	0	1	384
STR	71	0	1
SI_	71	0	1	96	288	4
HLD	73	0	6	384
TAP	75	0	7
TAP	75	96	7
TAP	75	192	7
TAP	76	0	0
TAP	76	96	0
TAP	76	192	0
TAP	77	0	7
TAP	77	96	7
TAP	77	192	7
TAP	78	0	6
TAP	78	96	6
TAP	78	192	6
TAP	79	0	5
TAP	79	96	5
TAP	79	192	5
TAP	80	0	4
TAP	80	96	4
TAP	80	192	4
TAP	81	0	3
TAP	81	96	3
TAP	81	192	3
TAP	82	0	2
TAP	82	96	2
TAP	82	192	2
TAP	83	0	1
TAP	83	96	1
TAP	83	192	1
BRK	84	0	0
TAP	85	0	7
TAP	85	96	7
TAP	85	192	7
TAP	86	0	0
TAP	86	96	0
TAP	86	192	0
TAP	87	0	1
TAP	87	96	1
TAP	87	192	1
TAP	88	0	2
TAP	88	96	2
TAP	88	192	2
TAP	89	0	3
TAP	89	96	3
TAP	89	192	3
TAP	90	0	4
TAP	90	96	4
TAP	90	192	4
TAP	91	0	5
TAP	91	96	5
TAP	91	192	5
TAP	92	0	6
TAP	92	96	6
TAP	92	192	6
TAP	93	0	7
TAP	93	96	7
TAP	93	192	7
TAP	93	288	7
TAP	94	0	6
TAP	94	96	6
TAP	94	192	6
TAP	95	0	5
TAP	95	96	5
TAP	95	192	5
TAP	95	288	5
TAP	96	0	4
TAP	96	96	4
TAP	96	192	4
TAP	97	0	3
TAP	97	96	3
TAP	97	192	3
TAP	97	288	3
TAP	98	0	2
TAP	98	96	2
TAP	98	192	2
TAP	99	0	1
TAP	99	96	1
TAP	99	192	1
TAP	99	288	1
BRK	100	0	0
TAP	101	0	7
TAP	101	96	7
TAP	101	192	7
TAP	101	288	7
TAP	102	0	0
TAP	102	96	0
TAP	102	192	0
TAP	103	0	1
TAP	103	96	1
TAP	103	192	1
TAP	103	288	1
TAP	104	0	2
TAP	104	96	2
TAP	104	192	2
TAP	105	0	3
TAP	105	96	3
TAP	105	192	3
TAP	105	288	3
TAP	106	0	4
TAP	106	96	4
TAP	106	192	4
TAP	107	0	4
TAP	107	0	5
TAP	107	192	4
TAP	107	192	5
TAP	108	0	6
TAP	108	0	7
TAP	108	192	6
TAP	108	192	7
STR	109	0	3
SI_	109	0	3	96	288	0
STR	109	0	4
SI_	109	0	4	96	288	7
TAP	113	0	7
TAP	113	192	7
TAP	114	0	7
TAP	114	192	7
TAP	115	0	6
TAP	115	192	6
TAP	116	0	6
TAP	116	0	7
TAP	117	0	0
TAP	117	96	0
TAP	117	192	0
TAP	118	0	1
TAP	118	96	1
TAP	118	192	1
TAP	119	0	2
TAP	119	96	2
TAP	119	192	2
TAP	120	0	3
TAP	120	96	3
TAP	120	192	3
TAP	121	0	4
TAP	121	96	4
TAP	121	192	4
TAP	122	0	5
TAP	122	96	5
TAP	122	192	5
TAP	123	0	6
TAP	123	96	6
TAP	123	192	6
TAP	124	0	7
TAP	124	96	7
TAP	124	192	0
TAP	124	288	0

T_REC_TAP	227
T_REC_BRK	2
T_REC_XTP	0
T_REC_HLD	8
T_REC_XHO	0
T_REC_STR	6
T_REC_BST	0
T_REC_XST	0
T_REC_TTP	0
T_REC_THO	0
T_REC_SLD	6
T_REC_ALL	249
T_NUM_TAP	233
T_NUM_BRK	2
T_NUM_HLD	8
T_NUM_SLD	6
T_NUM_ALL	249
T_JUDGE_TAP	235
T_JUDGE_HLD	64
T_JUDGE_SLD	6
T_JUDGE_ALL	305
TTM_EACHPAIRS	20
TTM_SCR_TAP	116500
TTM_SCR_BRK	5200
TTM_SCR_HLD	8000
TTM_SCR_SLD	9000
TTM_SCR_ALL	138700
TTM_SCR_S	134350
TTM_SCR_SS	138500
TTM_RAT_ACV	10014

