VERSION	0.00.00	1.03.00
FES_MODE	0
BPM_DEF	120.000	120.000	120.000	120.000
MET_DEF	4	4
RESOLUTION	384
CLK_DEF	384
COMPATIBLE_CODE	MA2

BPM	0	0	120.000
MET	0	0	4	4

TAP	1	0	1
TAP	1	48	0
TAP	1	96	1
TAP	1	144	0
TAP	1	192	2
TAP	1	192	7
TAP	1	288	6
TAP	1	336	7
TAP	2	0	6
TAP	2	48	7
TAP	2	96	0
TAP	2	96	5
TAP	2	192	0
TAP	2	240	0
TAP	2	288	7
TAP	2	336	7
TAP	3	0	0
TAP	3	48	1
TAP	3	96	2
TAP	3	144	3
TAP	3	192	4
TAP	3	240	5
TAP	3	288	6
TAP	3	336	7
TAP	4	0	0
TAP	4	24	1
TAP	4	48	2
TAP	4	72	3
TAP	4	96	4
TAP	4	120	5
TAP	4	144	6
TAP	4	168	7
TAP	4	192	0
TAP	4	216	1
TAP	4	240	2
TAP	4	264	3
TAP	4	288	4
TAP	4	312	5
TAP	4	336	6
TAP	4	360	7
TAP	5	0	0
TAP	5	0	4
TAP	5	48	1
TAP	5	48	5
TAP	5	96	2
TAP	5	96	6
TAP	5	144	3
TAP	5	144	7
BRK	5	192	0
BRK	5	192	4
TAP	6	0	3
TAP	6	48	4
TAP	6	96	3
TAP	6	144	4
TAP	6	192	1
TAP	6	240	0
TAP	6	288	1
TAP	6	336	0
STR	7	0	1
SCR	7	0	1	96	96	6
TAP	7	96	0
TAP	7	192	7
TAP	7	288	0
TAP	7	336	7
STR	8	0	6
SCL	8	0	6	96	48	3
TAP	8	96	7
STR	8	192	1
SCR	8	192	1	96	48	4
TAP	8	288	0
STR	9	0	6
SCL	9	0	6	96	48	3
TAP	9	96	7
STR	9	192	1
SCR	9	192	1	96	48	4
TAP	9	288	0
TAP	9	336	0
TAP	10	0	7
STR	10	48	6
SUL	10	48	6	96	48	1
TAP	10	144	7
TAP	10	192	0
STR	10	240	1
SUR	10	240	1	96	48	6
TAP	10	336	0
TAP	11	0	7
TAP	11	48	1
TAP	11	96	6
TAP	11	144	2
TAP	11	192	5
TAP	11	240	3
TAP	11	264	4
TAP	11	288	3
TAP	11	336	3
TAP	11	336	4
STR	12	0	2
SCL	12	0	2	96	192	4
STR	12	0	5
SCR	12	0	5	96	192	3
TAP	13	0	3
TAP	13	0	4
TAP	13	96	2
TAP	13	96	5
TAP	13	192	1
TAP	13	192	6
TAP	13	288	0
TAP	13	288	7
TAP	14	0	4
TAP	14	48	3
TAP	14	96	4
TAP	14	144	3
TAP	14	192	6
TAP	14	240	7
TAP	14	288	6
TAP	14	336	7
STR	15	0	6
SCL	15	0	6	96	96	1
TAP	15	96	7
TAP	15	192	0
TAP	15	288	0
TAP	15	288	7
STR	16	0	1
SI_	16	0	1	96	48	6
STR	16	0	2
SI_	16	0	2	96	48	5
STR	16	192	5
SI_	16	192	5	96	48	2
STR	16	192	6
SI_	16	192	6	96	48	1
STR	17	0	1
SUR	17	0	1	96	48	6
STR	17	0	2
SCR	17	0	2	96	48	5
STR	17	192	5
SCL	17	192	5	96	48	2
STR	17	192	6
SUL	17	192	6	96	48	1
TAP	18	0	0
STR	18	48	2
SV_	18	48	2	96	48	5
TAP	18	144	0
TAP	18	192	7
STR	18	240	5
SV_	18	240	5	96	48	2
TAP	18	336	7
TAP	19	0	0
TAP	19	48	6
TAP	19	96	1
TAP	19	144	5
TAP	19	192	2
TAP	19	240	4
TAP	19	264	3
TAP	19	288	4
TAP	19	336	3
TAP	19	336	4
STR	20	0	2
SCR	20	0	2	96	192	7
STR	20	0	5
SCL	20	0	5	96	192	0
TAP	21	0	0
TAP	21	0	7
TAP	21	96	1
TAP	21	96	6
TAP	21	192	2
TAP	21	192	5
TAP	21	288	3
TAP	21	288	4
HLD	22	0	6	192
TAP	22	48	5
TAP	22	96	4
TAP	22	144	3
TAP	22	192	2
HLD	22	288	1	192
TAP	22	336	0
TAP	23	0	7
TAP	23	48	6
TAP	23	96	5
HLD	23	192	4	192
TAP	23	240	5
TAP	23	288	6
TAP	23	336	7
STR	24	0	0
SCR	24	0	0	96	96	3
STR	24	96	3
SCR	24	96	3	96	96	6
STR	24	192	6
SCR	24	192	6	96	96	1
STR	24	288	1
SCR	24	288	1	96	96	4
STR	25	0	4
SXL	25	0	4	96	192	0
HLD	26	0	1	192
TAP	26	48	2
TAP	26	96	3
TAP	26	144	4
TAP	26	192	5
HLD	26	288	6	192
TAP	26	336	7
TAP	27	0	0
TAP	27	48	1
TAP	27	96	2
HLD	27	192	3	192
TAP	27	240	2
TAP	27	288	1
TAP	27	336	0
STR	28	0	7
SCL	28	0	7	96	96	4
STR	28	96	4
SCL	28	96	4	96	96	1
STR	28	192	1
SCL	28	192	1	96	96	6
STR	28	288	6
SCL	28	288	6	96	96	3
STR	29	0	3
SXR	29	0	3	96	192	7
TAP	30	0	3
TAP	30	0	7
TAP	30	48	2
TAP	30	48	6
TAP	30	96	1
TAP	30	96	5
TAP	30	144	0
TAP	30	144	4
TAP	30	192	0
TAP	30	240	7
TAP	30	288	1
TAP	30	336	6
BST	31	0	0
SI_	31	0	0	96	48	3
SI_	31	0	0	96	48	5
TAP	31	192	7
TAP	31	240	0
TAP	31	288	6
TAP	31	336	1
BST	32	0	7
SI_	32	0	7	96	48	2
SI_	32	0	7	96	48	4
TAP	32	288	2
TAP	32	288	5
TAP	32	336	1
TAP	32	336	6
STR	33	0	0
SUL	33	0	0	96	48	3
STR	33	0	7
SCL	33	0	7	96	48	4
STR	33	192	0
SCR	33	192	0	96	48	3
STR	33	192	7
SUR	33	192	7	96	48	4
STR	34	0	6
SCL	34	0	6	96	48	3
STR	34	0	7
SUL	34	0	7	96	48	2
STR	34	192	0
SUR	34	192	0	96	48	5
STR	34	192	1
SCR	34	192	1	96	48	4
TAP	35	0	7
TAP	35	48	6
TAP	35	96	5
TAP	35	144	4
TAP	35	192	3
TAP	35	240	2
TAP	35	288	1
TAP	35	336	0
STR	36	0	7
SI_	36	0	7	96	48	4
STR	36	96	7
SI_	36	96	7	96	48	2
STR	36	192	7
SI_	36	192	7	96	48	3
STR	36	288	7
SCL	36	288	7	96	48	5
SCR	36	288	7	96	48	1
BST	37	0	7
SF_	37	0	7	96	192	3
TAP	38	0	0
TAP	38	0	4
TAP	38	48	1
TAP	38	48	5
TAP	38	96	2
TAP	38	96	6
TAP	38	144	3
TAP	38	144	7
TAP	38	192	7
TAP	38	240	0
TAP	38	288	5
TAP	38	336	2
BST	39	0	7
SI_	39	0	7	96	48	2
SI_	39	0	7	96	48	4
TAP	39	192	0
TAP	39	240	7
TAP	39	288	2
TAP	39	336	5
BST	40	0	0
SI_	40	0	0	96	48	3
SI_	40	0	0	96	48	5
TAP	40	288	2
TAP	40	288	5
TAP	40	336	1
TAP	40	336	6
STR	41	0	0
SLR	41	0	0	96	48	4
STR	41	0	7
SV_	41	0	7	96	48	5
STR	41	192	0
SV_	41	192	0	96	48	2
STR	41	192	7
SLL	41	192	7	96	48	3
STR	42	0	0
SV_	42	0	0	96	48	6
STR	42	0	1
SLR	42	0	1	96	48	5
STR	42	192	6
SLL	42	192	6	96	48	2
STR	42	192	7
SV_	42	192	7	96	48	1
TAP	43	0	0
TAP	43	48	1
TAP	43	96	2
TAP	43	144	3
TAP	43	192	4
TAP	43	240	5
TAP	43	288	6
TAP	43	336	7
STR	44	0	0
SI_	44	0	0	96	48	3
STR	44	96	0
SI_	44	96	0	96	48	5
STR	44	192	0
SI_	44	192	0	96	48	4
STR	44	288	0
SCL	44	288	0	96	48	6
SCR	44	288	0	96	48	2
BST	45	0	0
SF_	45	0	0	96	192	4
TAP	46	0	3
TAP	46	0	7
TAP	46	48	0
TAP	46	48	4
TAP	46	96	1
TAP	46	96	5
TAP	46	144	2
TAP	46	144	6
STR	46	192	3
SXR	46	192	3	96	192	0
STR	46	192	7
SXR	46	192	7	96	192	4
STR	47	192	0
SXL	47	192	0	96	192	3
STR	47	192	4
SXL	47	192	4	96	192	7
TAP	48	192	1
TAP	48	192	6
TAP	48	288	0
TAP	48	336	7
STR	49	0	1
SI_	49	0	1	96	48	4
STR	49	96	6
SI_	49	96	6	96	48	3
STR	49	192	2
SI_	49	192	2	96	48	7
STR	49	288	5
SI_	49	288	5	96	48	0
STR	50	0	3
SCL	50	0	3	96	192	4
TAP	51	0	3
TAP	51	48	3
TAP	51	96	4
TAP	51	144	4
TAP	51	192	2
TAP	51	240	2
TAP	51	288	5
TAP	51	336	5
TAP	52	0	0
TAP	52	0	1
TAP	52	96	6
TAP	52	96	7
TAP	52	192	2
TAP	52	192	3
TAP	52	288	4
TAP	52	288	5
STR	53	0	0
SCR	53	0	0	96	192	7
STR	53	0	7
SCL	53	0	7	96	192	0
TAP	54	0	0
TAP	54	0	7
TAP	54	48	1
TAP	54	48	6
TAP	54	96	2
TAP	54	96	5
TAP	54	144	3
TAP	54	144	4
STR	54	192	0
SI_	54	192	0	96	48	4
STR	54	288	0
SCL	54	288	0	96	48	5
SCR	54	288	0	96	48	3
BRK	55	0	0
STR	55	192	7
SI_	55	192	7	96	48	3
STR	55	288	7
SCL	55	288	7	96	48	4
SCR	55	288	7	96	48	2
BRK	56	0	7
TAP	56	96	1
TAP	56	96	6
TAP	56	144	1
TAP	56	144	6
TAP	56	288	0
TAP	56	288	7
TAP	56	336	0
TAP	56	336	7
STR	57	0	0
SI_	57	0	0	96	48	5
STR	57	0	1
SI_	57	0	1	96	48	4
TAP	57	96	0
TAP	57	96	1
STR	57	192	6
SI_	57	192	6	96	48	3
STR	57	192	7
SI_	57	192	7	96	48	2
TAP	57	288	6
TAP	57	288	7
BST	58	0	0
SCR	58	0	0	96	192	7
BST	58	0	7
SCL	58	0	7	96	192	0
TAP	59	0	0
TAP	59	48	0
TAP	59	96	7
TAP	59	144	7
TAP	59	192	1
TAP	59	240	1
TAP	59	288	6
TAP	59	336	6
STR	60	0	0
SI_	60	0	0	96	48	3
SI_	60	0	0	96	48	5
TAP	60	96	0
STR	60	192	7
SI_	60	192	7	96	48	2
SI_	60	192	7	96	48	4
TAP	60	288	7
STR	61	0	0
SXL	61	0	0	96	192	3
STR	61	0	7
SXR	61	0	7	96	192	4
TAP	62	0	0
TAP	62	0	4
TAP	62	48	1
TAP	62	48	5
TAP	62	96	2
TAP	62	96	6
TAP	62	144	3
TAP	62	144	7
TAP	62	192	0
TAP	62	192	4
TAP	62	240	3
TAP	62	240	7
TAP	62	288	2
TAP	62	288	6
TAP	62	336	1
TAP	62	336	5
BST	63	0	0
SF_	63	0	0	96	672	4
TAP	63	0	4

T_REC_TAP	274
T_REC_BRK	4
T_REC_XTP	0
T_REC_HLD	6
T_REC_XHO	0
T_REC_STR	79
T_REC_BST	9
T_REC_XST	0
T_REC_TTP	0
T_REC_THO	0
T_REC_SLD	98
T_REC_ALL	470
T_NUM_TAP	353
T_NUM_BRK	13
T_NUM_HLD	6
T_NUM_SLD	98
T_NUM_ALL	470
T_JUDGE_TAP	366
T_JUDGE_HLD	24
T_JUDGE_SLD	98
T_JUDGE_ALL	488
TTM_EACHPAIRS	79
TTM_SCR_TAP	176500
TTM_SCR_BRK	33800
TTM_SCR_HLD	6000
TTM_SCR_SLD	147000
TTM_SCR_ALL	363300
TTM_SCR_S	351150
TTM_SCR_SS	362000
TTM_RAT_ACV	10035

