VERSION	0.00.00	1.03.00
FES_MODE	0
BPM_DEF	120.000	120.000	120.000	120.000
MET_DEF	4	4
RESOLUTION	384
CLK_DEF	384
COMPATIBLE_CODE	MA2

BPM	0	0	120.000
MET	0	0	4	4

TAP	5	0	0
TAP	5	48	0
TAP	5	96	7
TAP	5	144	7
BRK	5	192	1
BRK	5	192	6
BRK	5	288	0
STR	6	0	1
SI_	6	0	1	96	48	3
STR	6	192	0
SI_	6	192	0	96	48	4
STR	7	0	7
SCL	7	0	7	96	192	1
STR	8	0	6
SI_	8	0	6	96	48	4
STR	8	192	7
SI_	8	192	7	96	48	3
STR	9	0	0
SCR	9	0	0	96	192	6
STR	10	0	0
SI_	10	0	0	96	48	2
SI_	10	0	0	96	48	6
STR	10	192	7
SI_	10	192	7	96	48	1
SI_	10	192	7	96	48	5
STR	11	0	2
SCL	11	0	2	96	48	0
STR	11	192	5
SCR	11	192	5	96	48	7
STR	12	0	1
SXR	12	0	1	96	192	6
BRK	13	0	7
BRK	13	96	1
BRK	13	96	6
BRK	13	192	2
BRK	13	192	5
BRK	13	288	3
BRK	13	288	4
STR	14	0	3
SI_	14	0	3	96	48	0
STR	14	192	4
SI_	14	192	4	96	48	7
STR	15	0	0
SV_	15	0	0	96	144	3
STR	15	0	7
SV_	15	0	7	96	144	4
STR	16	0	3
SI_	16	0	3	96	48	0
STR	16	192	7
SI_	16	192	7	96	48	4
TAP	17	0	3
TAP	17	96	2
TAP	17	192	1
TAP	17	288	0
HLD	18	0	6	96
HLD	18	0	7	96
HLD	18	192	0	96
HLD	18	192	1	96
HLD	19	0	7	96
HLD	19	96	5	96
HLD	19	192	3	96
STR	19	288	1
SI_	19	288	1	96	96	4
STR	20	0	0
SI_	20	0	0	96	96	5
TAP	20	288	1
TAP	20	288	6
TAP	21	0	5
TAP	21	96	6
TAP	21	192	7
BRK	21	288	1
BRK	21	288	6
HLD	22	0	2	192
TAP	22	96	3
TAP	22	192	1
HLD	22	288	5	192
TAP	23	0	4
TAP	23	96	6
HLD	23	192	3	96
HLD	23	288	4	96
TAP	24	0	2
TAP	24	48	2
TAP	24	96	5
TAP	24	144	5
TAP	24	192	1
TAP	24	240	1
TAP	24	288	6
TAP	24	336	6
STR	25	0	0
SV_	25	0	0	96	144	7
TAP	26	0	2
TAP	26	0	3
TAP	26	96	3
TAP	26	96	4
TAP	26	192	4
TAP	26	192	5
TAP	26	288	0
TAP	26	288	1
TAP	27	0	0
TAP	27	0	7
TAP	27	96	6
TAP	27	96	7
TAP	27	192	1
TAP	27	192	6
TAP	27	288	0
TAP	27	288	7
STR	28	0	1
SI_	28	0	1	96	48	4
STR	28	192	7
SI_	28	192	7	96	48	4
STR	29	0	4
SF_	29	0	4	96	192	0
TAP	30	0	7
TAP	30	48	7
TAP	30	96	0
TAP	30	144	0
BRK	30	192	1
BRK	30	192	6
HLD	31	0	2	96
TAP	31	96	1
HLD	31	192	5	96
TAP	31	288	6
HLD	32	0	2	288
TAP	32	96	0
TAP	32	192	6
TAP	32	288	4
STR	33	0	5
SCL	33	0	5	96	96	2
STR	33	192	1
SUR	33	192	1	96	96	6
STR	34	0	7
SXL	34	0	7	96	192	2
HLD	35	0	1	96
TAP	35	48	0
TAP	35	96	0
HLD	35	192	6	96
TAP	35	240	7
TAP	35	288	7
TAP	36	0	0
TAP	36	0	7
TAP	36	96	1
TAP	36	96	2
TAP	36	192	3
TAP	36	192	4
TAP	36	288	5
TAP	36	288	6
STR	37	0	0
SXL	37	0	0	96	288	3
STR	37	0	7
SXR	37	0	7	96	288	4
TAP	38	96	3
TAP	38	96	4
TAP	38	192	2
TAP	38	192	5
TAP	38	288	3
TAP	38	288	4
HLD	39	0	5	96
TAP	39	96	6
HLD	39	192	2	96
TAP	39	288	1
HLD	40	0	5	288
TAP	40	96	7
TAP	40	192	1
TAP	40	288	3
STR	41	0	2
SCR	41	0	2	96	96	5
STR	41	192	6
SUL	41	192	6	96	96	1
STR	42	0	0
SXR	42	0	0	96	192	5
TAP	43	0	6
TAP	43	48	6
TAP	43	96	7
TAP	43	144	7
TAP	43	192	0
TAP	43	240	0
TAP	43	288	1
TAP	43	336	1
TAP	44	0	6
TAP	44	0	7
TAP	44	96	4
TAP	44	96	5
TAP	44	192	2
TAP	44	192	3
TAP	44	288	0
TAP	44	288	1
STR	45	0	6
SI_	45	0	6	96	192	3
STR	45	0	7
SI_	45	0	7	96	192	2
TAP	46	0	0
TAP	46	0	7
TAP	46	48	0
TAP	46	48	7
TAP	46	96	1
TAP	46	96	6
TAP	46	144	1
TAP	46	144	6
BRK	46	192	0
BRK	46	192	7
TAP	46	288	2
TAP	46	288	5
HLD	47	0	2	288
TAP	47	96	3
TAP	47	288	3
HLD	48	0	3	288
TAP	48	96	4
TAP	48	288	4
HLD	49	0	4	192
TAP	49	96	5
HLD	49	192	5	192
TAP	49	288	6
STR	50	0	6
SLL	50	0	6	96	192	2
TAP	51	0	6
TAP	51	96	7
TAP	51	192	0
TAP	51	288	1
TAP	52	0	2
TAP	52	0	3
TAP	52	96	4
TAP	52	96	5
TAP	52	192	1
TAP	52	192	2
TAP	52	288	5
TAP	52	288	6
STR	53	0	0
SCR	53	0	0	96	192	3
STR	53	0	7
SCL	53	0	7	96	192	4
TAP	54	0	0
TAP	54	0	7
TAP	54	48	0
TAP	54	48	7
TAP	54	96	2
TAP	54	96	5
TAP	54	144	2
TAP	54	144	5
BRK	54	192	0
BRK	54	192	7
TAP	54	288	1
TAP	54	288	6
HLD	55	0	3	96
TAP	55	96	0
HLD	55	192	4	96
TAP	55	288	7
HLD	56	0	3	96
STR	56	96	1
SCL	56	96	1	96	96	6
HLD	57	0	3	96
TAP	57	96	2
HLD	57	192	4	96
STR	57	288	5
SXL	57	288	5	96	240	1
STR	59	0	6
SI_	59	0	6	96	48	4
STR	59	96	7
SI_	59	96	7	96	48	3
STR	59	192	0
SI_	59	192	0	96	48	4
STR	59	288	1
SI_	59	288	1	96	48	3
TAP	60	96	4
TAP	60	192	4
TAP	60	192	5
TAP	60	288	2
TAP	60	288	3
TAP	61	0	2
TAP	61	0	5
TAP	61	48	4
TAP	61	96	3
TAP	61	144	5
TAP	61	192	2
TAP	61	240	6
TAP	61	288	1
TAP	61	336	7
TAP	62	0	0
TAP	62	48	7
TAP	62	96	0
TAP	62	144	7
TAP	62	192	1
TAP	62	240	6
TAP	62	288	0
TAP	62	336	7
BST	63	0	1
SCR	63	0	1	96	576	7
BST	63	0	6
SCL	63	0	6	96	576	0

T_REC_TAP	152
T_REC_BRK	18
T_REC_XTP	0
T_REC_HLD	28
T_REC_XHO	0
T_REC_STR	42
T_REC_BST	2
T_REC_XST	0
T_REC_TTP	0
T_REC_THO	0
T_REC_SLD	46
T_REC_ALL	288
T_NUM_TAP	194
T_NUM_BRK	20
T_NUM_HLD	28
T_NUM_SLD	46
T_NUM_ALL	288
T_JUDGE_TAP	214
T_JUDGE_HLD	80
T_JUDGE_SLD	46
T_JUDGE_ALL	340
TTM_EACHPAIRS	52
TTM_SCR_TAP	97000
TTM_SCR_BRK	52000
TTM_SCR_HLD	28000
TTM_SCR_SLD	69000
TTM_SCR_ALL	246000
TTM_SCR_S	236700
TTM_SCR_SS	244000
TTM_RAT_ACV	10081

