VERSION	0.00.00	1.03.00
FES_MODE	0
BPM_DEF	120.000	120.000	120.000	120.000
MET_DEF	4	4
RESOLUTION	384
CLK_DEF	384
COMPATIBLE_CODE	MA2

BPM	0	0	120.000
MET	0	0	4	4

TAP	1	0	2
TAP	1	0	3
TAP	1	192	2
TAP	1	192	3
TAP	2	0	4
TAP	2	0	5
TAP	2	192	4
TAP	2	192	5
TAP	3	0	3
TAP	3	96	2
TAP	3	192	1
TAP	3	288	0
TAP	4	0	7
TAP	4	96	6
TAP	4	192	5
TAP	4	288	4
TAP	5	0	3
TAP	5	0	4
TAP	5	96	3
TAP	5	96	4
BRK	5	192	3
BRK	5	192	4
TAP	6	0	2
TAP	6	96	3
TAP	6	192	2
TAP	6	288	3
TAP	7	0	2
TAP	7	96	2
TAP	7	192	2
TAP	7	192	3
TAP	8	0	5
TAP	8	96	4
TAP	8	192	5
TAP	8	288	4
TAP	9	0	5
TAP	9	96	5
TAP	9	192	4
TAP	9	192	5
TAP	10	0	1
TAP	10	0	3
TAP	10	192	4
TAP	10	192	6
TAP	11	0	3
TAP	11	96	4
TAP	11	192	3
TAP	11	288	4
STR	12	0	3
SCL	12	0	3	96	288	0
STR	12	0	4
SCR	12	0	4	96	288	7
TAP	13	192	0
TAP	13	192	7
TAP	14	0	1
TAP	14	96	0
TAP	14	192	1
TAP	14	288	0
TAP	15	0	1
TAP	15	96	1
TAP	15	192	0
TAP	15	192	1
TAP	16	0	6
TAP	16	96	7
TAP	16	192	6
TAP	16	288	7
TAP	17	0	6
TAP	17	96	6
TAP	17	192	6
TAP	17	192	7
TAP	18	0	0
TAP	18	0	2
TAP	18	192	5
TAP	18	192	7
TAP	19	0	0
TAP	19	96	7
TAP	19	192	0
TAP	19	288	7
STR	20	0	0
SCR	20	0	0	96	288	3
STR	20	0	7
SCL	20	0	7	96	288	4
TAP	21	192	3
TAP	21	192	4
TAP	22	0	2
TAP	22	96	2
TAP	22	192	2
TAP	22	192	3
TAP	22	288	5
TAP	23	0	5
TAP	23	96	4
TAP	23	96	5
TAP	23	192	2
TAP	23	288	2
TAP	24	0	1
TAP	24	0	3
TAP	24	96	5
TAP	24	192	5
TAP	24	288	4
TAP	24	288	6
TAP	25	0	3
TAP	25	0	4
TAP	25	96	3
TAP	25	96	4
TAP	25	192	2
TAP	25	192	5
TAP	25	288	2
TAP	25	288	5
HLD	26	0	2	192
TAP	26	96	3
TAP	26	192	3
HLD	26	288	5	192
TAP	27	0	4
TAP	27	96	4
HLD	27	192	6	192
TAP	27	288	7
TAP	28	0	7
HLD	28	96	1	192
TAP	28	192	0
TAP	28	288	0
TAP	29	0	0
TAP	29	0	7
TAP	29	96	0
TAP	29	96	7
TAP	29	192	1
TAP	29	192	6
TAP	30	0	3
TAP	30	0	4
TAP	30	96	3
TAP	30	96	4
BRK	30	192	3
BRK	30	192	4
TAP	31	0	2
TAP	31	96	3
TAP	31	192	2
TAP	31	288	2
TAP	31	288	3
TAP	32	0	5
TAP	32	96	4
TAP	32	192	5
TAP	32	288	4
TAP	32	288	5
HLD	33	0	2	96
TAP	33	96	3
HLD	33	192	5	96
TAP	33	288	4
STR	34	0	3
SCL	34	0	3	96	192	0
STR	34	0	4
SCR	34	0	4	96	192	7
TAP	35	0	1
TAP	35	96	0
TAP	35	96	1
TAP	35	192	6
TAP	35	288	6
TAP	35	288	7
TAP	36	0	0
TAP	36	0	1
TAP	36	96	6
TAP	36	96	7
TAP	36	192	0
TAP	36	192	1
TAP	36	288	6
TAP	36	288	7
STR	37	0	0
SF_	37	0	0	96	480	4
TAP	39	0	5
TAP	39	96	4
TAP	39	192	6
TAP	39	288	4
TAP	39	288	5
TAP	40	0	2
TAP	40	96	3
TAP	40	192	1
TAP	40	288	2
TAP	40	288	3
HLD	41	0	6	96
TAP	41	96	4
HLD	41	192	1	96
TAP	41	288	3
STR	42	0	3
SCL	42	0	3	96	192	0
STR	42	0	4
SCR	42	0	4	96	192	7
TAP	43	0	6
TAP	43	96	5
TAP	43	96	7
TAP	43	192	1
TAP	43	288	0
TAP	43	288	2
TAP	44	0	6
TAP	44	0	7
TAP	44	96	0
TAP	44	96	1
TAP	44	192	6
TAP	44	192	7
TAP	44	288	0
TAP	44	288	1
STR	45	0	7
SF_	45	0	7	96	480	3
HLD	47	0	2	192
HLD	47	192	3	192
HLD	48	0	4	192
TAP	48	192	5
HLD	49	0	5	192
HLD	49	192	4	192
HLD	50	0	3	192
TAP	50	192	2
TAP	51	0	2
TAP	51	96	2
TAP	51	192	3
TAP	51	288	3
TAP	52	0	5
TAP	52	96	5
TAP	52	192	4
STR	52	288	3
SCL	52	288	3	96	384	0
STR	52	288	4
SCR	52	288	4	96	384	7
TAP	54	192	3
TAP	54	192	4
TAP	54	288	3
TAP	54	288	4
TAP	55	0	5
TAP	55	96	4
TAP	55	96	5
TAP	55	192	2
TAP	55	288	2
TAP	55	288	3
TAP	56	0	5
TAP	56	96	4
TAP	56	96	6
TAP	56	192	2
TAP	56	288	1
TAP	56	288	3
TAP	57	0	1
TAP	57	96	0
TAP	57	96	1
TAP	57	192	6
TAP	57	288	6
TAP	57	288	7
TAP	58	0	0
TAP	58	0	7
TAP	58	96	0
TAP	58	96	7
BRK	58	192	1
BRK	58	192	6
TAP	59	0	1
TAP	59	96	0
TAP	59	96	1
TAP	59	192	6
TAP	59	288	6
TAP	59	288	7
TAP	60	0	1
TAP	60	96	0
TAP	60	96	2
TAP	60	192	6
TAP	60	288	5
TAP	60	288	7
HLD	61	0	1	192
HLD	61	0	6	192
TAP	62	0	0
TAP	62	48	0
TAP	62	96	0
TAP	62	192	7
TAP	62	240	7
TAP	62	288	7
BST	63	0	0
SCR	63	0	0	96	480	3
BST	63	0	7
SCL	63	0	7	96	480	4

T_REC_TAP	219
T_REC_BRK	6
T_REC_XTP	0
T_REC_HLD	16
T_REC_XHO	0
T_REC_STR	12
T_REC_BST	2
T_REC_XST	0
T_REC_TTP	0
T_REC_THO	0
T_REC_SLD	14
T_REC_ALL	269
T_NUM_TAP	231
T_NUM_BRK	8
T_NUM_HLD	16
T_NUM_SLD	14
T_NUM_ALL	269
T_JUDGE_TAP	239
T_JUDGE_HLD	56
T_JUDGE_SLD	14
T_JUDGE_ALL	309
TTM_EACHPAIRS	69
TTM_SCR_TAP	115500
TTM_SCR_BRK	20800
TTM_SCR_HLD	16000
TTM_SCR_SLD	21000
TTM_SCR_ALL	173300
TTM_SCR_S	167350
TTM_SCR_SS	172500
TTM_RAT_ACV	10046

