VERSION	0.00.00	1.03.00
FES_MODE	0
BPM_DEF	120.000	120.000	120.000	120.000
MET_DEF	4	4
RESOLUTION	384
CLK_DEF	384
COMPATIBLE_CODE	MA2

BPM	0	0	120.000
MET	0	0	4	4

TAP	6	0	3
TAP	6	192	3
HLD	7	0	3	192
TAP	8	0	4
TAP	8	192	4
HLD	9	0	4	192
TAP	10	0	2
TAP	10	192	2
HLD	11	0	2	192
STR	12	0	2
SI_	12	0	2	96	288	5
TAP	14	0	7
TAP	14	192	7
HLD	15	0	7	192
TAP	16	0	0
TAP	16	192	0
HLD	17	0	0	192
TAP	18	0	6
TAP	18	192	6
HLD	19	0	6	192
STR	20	0	6
SI_	20	0	6	96	288	1
TAP	22	0	0
TAP	22	96	0
TAP	22	192	0
TAP	23	0	1
TAP	23	96	1
TAP	23	192	1
TAP	24	0	2
TAP	24	96	2
TAP	24	192	2
HLD	25	0	3	192
TAP	26	0	4
TAP	26	96	4
TAP	26	192	4
TAP	27	0	5
TAP	27	96	5
TAP	27	192	5
TAP	28	0	6
TAP	28	96	6
TAP	28	192	6
HLD	29	0	7	192
BRK	30	0	0
BRK	30	0	7
TAP	31	0	7
TAP	31	96	7
TAP	31	192	6
TAP	32	0	6
TAP	32	96	6
TAP	32	192	5
TAP	33	0	5
TAP	33	96	5
TAP	33	192	4
HLD	34	0	3	192
HLD	34	0	4	192
TAP	35	0	3
TAP	35	96	3
TAP	35	192	2
TAP	36	0	2
TAP	36	96	2
TAP	36	192	1
STR	37	0	2
SI_	37	0	2	96	288	7
TAP	39	0	0
TAP	39	96	0
TAP	39	192	1
TAP	40	0	1
TAP	40	96	1
TAP	40	192	2
TAP	41	0	2
TAP	41	96	2
TAP	41	192	3
HLD	42	0	3	192
HLD	42	0	4	192
TAP	43	0	4
TAP	43	96	4
TAP	43	192	5
TAP	44	0	5
TAP	44	96	5
TAP	44	192	6
STR	45	0	5
SI_	45	0	5	96	288	0
TAP	47	0	0
TAP	47	0	7
TAP	48	0	0
TAP	48	0	7
TAP	49	0	0
TAP	49	0	1
TAP	50	0	0
TAP	50	0	1
TAP	51	0	6
TAP	51	0	7
TAP	52	0	6
TAP	52	0	7
STR	53	0	0
SI_	53	0	0	96	288	3
STR	53	0	7
SI_	53	0	7	96	288	4
TAP	55	0	4
TAP	55	96	4
TAP	55	192	3
TAP	55	192	4
TAP	56	0	2
TAP	56	96	2
TAP	56	192	2
TAP	56	192	3
TAP	57	0	1
TAP	57	96	1
TAP	57	192	0
TAP	57	192	1
HLD	58	0	7	192
TAP	59	0	6
TAP	59	96	6
TAP	59	192	6
TAP	59	192	7
TAP	60	0	5
TAP	60	96	5
TAP	60	192	4
TAP	60	192	5
STR	61	0	3
SI_	61	0	3	96	288	0
STR	61	0	4
SI_	61	0	4	96	288	7
HLD	63	0	1	768
HLD	63	0	6	768

T_REC_TAP	92
T_REC_BRK	2
T_REC_XTP	0
T_REC_HLD	15
T_REC_XHO	0
T_REC_STR	8
T_REC_BST	0
T_REC_XST	0
T_REC_TTP	0
T_REC_THO	0
T_REC_SLD	8
T_REC_ALL	125
T_NUM_TAP	100
T_NUM_BRK	2
T_NUM_HLD	15
T_NUM_SLD	8
T_NUM_ALL	125
T_JUDGE_TAP	102
T_JUDGE_HLD	84
T_JUDGE_SLD	8
T_JUDGE_ALL	194
TTM_EACHPAIRS	17
TTM_SCR_TAP	50000
TTM_SCR_BRK	5200
TTM_SCR_HLD	15000
TTM_SCR_SLD	12000
TTM_SCR_ALL	82200
TTM_SCR_S	79550
TTM_SCR_SS	82000
TTM_RAT_ACV	10024

