VERSION	0.00.00	1.03.00
FES_MODE	0
BPM_DEF	164.000	164.000	164.000	164.000
MET_DEF	4	4
RESOLUTION	384
CLK_DEF	384
COMPATIBLE_CODE	MA2

BPM	0	0	164.000
MET	0	0	4	4

TAP	2	0	1
TAP	2	0	7
TAP	2	96	0
TAP	2	96	4
TAP	2	144	3
TAP	2	144	5
TAP	2	192	2
TAP	2	192	6
TAP	2	288	3
TAP	2	288	7
STR	3	0	4
SI_	3	0	4	96	96	0
STR	3	96	0
SLR	3	96	0	96	96	4
STR	3	192	4
SLR	3	192	4	96	96	0
STR	3	288	0
SXL	3	288	0	96	240	3
SXR	3	288	0	96	240	5
STR	5	0	7
SXL	5	0	7	96	192	2
SXR	5	0	7	96	192	4
TAP	6	0	0
TAP	6	48	0
TAP	6	96	5
TAP	6	144	5
TAP	6	192	3
TAP	6	240	3
TAP	6	288	6
TAP	6	336	6
TAP	7	0	7
TAP	7	48	7
TAP	7	96	2
TAP	7	144	2
TAP	7	192	4
TAP	7	240	4
TAP	7	288	1
TAP	7	336	1
STR	8	0	0
SLR	8	0	0	96	96	4
TAP	8	96	7
TAP	8	144	6
TAP	8	192	5
TAP	8	288	5
TAP	8	336	0
STR	9	0	7
SLL	9	0	7	96	96	3
TAP	9	96	0
TAP	9	144	1
TAP	9	192	2
TAP	9	240	3
TAP	9	288	4
TAP	9	336	5
BST	10	0	6
SV_	10	0	6	96	48	4
BRK	10	0	7
TAP	10	96	7
STR	10	144	7
SLR	10	144	7	96	96	3
TAP	10	240	5
TAP	10	288	6
TAP	10	336	7
TAP	11	0	0
STR	11	0	1
SV_	11	0	1	96	48	3
TAP	11	96	0
STR	11	144	0
SLL	11	144	0	96	96	4
TAP	11	240	2
TAP	11	288	1
TAP	11	336	0
STR	12	0	0
SV_	12	0	0	96	48	2
TAP	12	96	3
STR	12	144	3
SLR	12	144	3	96	96	7
TAP	12	240	0
TAP	12	288	1
TAP	12	336	2
STR	13	0	3
SV_	13	0	3	96	48	1
TAP	13	96	0
STR	13	144	0
SLL	13	144	0	96	96	4
TAP	13	240	1
TAP	13	288	2
TAP	13	336	3
STR	14	0	3
SI_	14	0	3	96	48	7
TAP	14	96	5
STR	14	144	5
SLL	14	144	5	96	96	6
TAP	14	240	7
TAP	14	288	0
TAP	14	336	1
STR	15	0	1
SI_	15	0	1	96	48	5
TAP	15	96	7
STR	15	144	7
SLL	15	144	7	96	96	3
TAP	15	240	2
TAP	15	288	1
TAP	15	336	0
TAP	16	0	1
TAP	16	0	5
TAP	16	48	2
TAP	16	48	6
TAP	16	96	3
TAP	16	96	7
STR	16	144	0
SCL	16	144	0	96	48	5
STR	16	144	4
SCL	16	144	4	96	48	1
TAP	16	240	0
TAP	16	240	4
BRK	17	0	0
BRK	17	0	7
TAP	17	96	1
TAP	17	144	2
TAP	17	192	3
TAP	17	240	4
TAP	17	288	5
TAP	17	336	6
STR	18	0	1
SCR	18	0	1	96	96	5
STR	18	96	6
SCR	18	96	6	96	96	2
STR	19	0	6
SCL	19	0	6	96	96	2
STR	19	96	1
SCL	19	96	1	96	96	5
STR	20	0	0
SCL	20	0	0	96	48	6
SCR	20	0	0	96	48	2
STR	20	192	7
SCL	20	192	7	96	48	5
SCR	20	192	7	96	48	1
STR	21	0	4
SI_	21	0	4	96	48	0
STR	21	96	0
SCL	21	96	0	96	96	4
SCR	21	96	0	96	96	4
STR	22	0	0
SI_	22	0	0	96	48	4
TAP	22	48	0
STR	22	192	4
SCL	22	192	4	96	48	1
SCR	22	192	4	96	48	6
TAP	22	240	4
STR	23	0	7
SI_	23	0	7	96	48	3
TAP	23	48	7
STR	23	192	3
SCL	23	192	3	96	48	1
SCR	23	192	3	96	48	6
TAP	23	240	3
TAP	24	0	0
TAP	24	48	7
TAP	24	96	1
TAP	24	96	6
TAP	24	144	1
TAP	24	144	6
TAP	24	192	7
TAP	24	240	0
TAP	24	288	1
TAP	24	288	6
TAP	24	336	1
TAP	24	336	6
TAP	25	0	0
TAP	25	0	7
TAP	25	48	0
TAP	25	48	7
TAP	25	96	1
TAP	25	96	6
BRK	25	144	0
BRK	25	144	7
STR	25	240	1
SI_	25	240	1	96	48	5
TAP	25	288	0
TAP	25	336	1
STR	26	0	7
SI_	26	0	7	96	48	4
STR	26	48	3
SI_	26	48	3	96	48	0
STR	26	240	6
SI_	26	240	6	96	48	2
TAP	26	288	7
TAP	26	336	6
STR	27	0	0
SI_	27	0	0	96	48	2
STR	27	48	4
SI_	27	48	4	96	48	6
STR	27	240	0
SI_	27	240	0	96	48	4
TAP	27	288	7
TAP	27	336	0
STR	28	0	6
SI_	28	0	6	96	48	3
STR	28	48	7
SI_	28	48	7	96	48	2
STR	28	240	7
SI_	28	240	7	96	48	3
TAP	28	288	0
TAP	28	336	7
STR	29	0	1
SI_	29	0	1	96	48	4
STR	29	48	0
SI_	29	48	0	96	48	5
STR	29	240	1
SI_	29	240	1	96	48	5
TAP	29	288	7
TAP	29	336	1
STR	30	0	7
SCR	30	0	7	96	72	2
STR	30	48	1
SCR	30	48	1	96	72	4
STR	30	240	6
SI_	30	240	6	96	48	2
TAP	30	288	0
TAP	30	336	6
STR	31	0	0
SCL	31	0	0	96	72	5
STR	31	48	6
SCL	31	48	6	96	72	3
TAP	31	240	4
TAP	31	288	4
STR	32	0	3
SXL	32	0	3	96	96	3
SXR	32	0	3	96	96	3
TAP	32	240	2
TAP	32	240	4
TAP	32	288	1
TAP	32	288	5
TAP	32	336	0
TAP	32	336	6
STR	33	0	7
SI_	33	0	7	96	48	3
STR	33	48	1
SI_	33	48	1	96	48	5
BRK	33	96	7
BRK	33	144	1
STR	33	240	6
SI_	33	240	6	96	48	2
TAP	33	288	7
TAP	33	336	6
STR	34	0	0
SI_	34	0	0	96	48	4
STR	34	48	4
SCL	34	48	4	96	48	1
STR	34	240	7
SI_	34	240	7	96	48	3
TAP	34	288	0
TAP	34	336	7
STR	35	0	1
SI_	35	0	1	96	48	5
STR	35	48	5
SCR	35	48	5	96	48	0
STR	35	240	6
SI_	35	240	6	96	48	2
TAP	35	288	7
TAP	35	336	6
STR	36	0	0
SI_	36	0	0	96	48	4
STR	36	48	4
SLL	36	48	4	96	48	0
STR	36	240	7
SI_	36	240	7	96	48	3
TAP	36	288	0
TAP	36	336	7
STR	37	0	1
SI_	37	0	1	96	48	5
STR	37	48	5
SCR	37	48	5	96	96	2
STR	37	240	7
SI_	37	240	7	96	48	3
TAP	37	288	0
TAP	37	336	7
STR	38	0	1
SI_	38	0	1	96	48	5
STR	38	48	5
SLL	38	48	5	96	48	1
STR	38	240	1
SI_	38	240	1	96	48	5
TAP	38	288	0
TAP	38	336	1
STR	39	0	7
SI_	39	0	7	96	48	3
STR	39	48	3
SLR	39	48	3	96	48	7
STR	39	240	6
SI_	39	240	6	96	48	2
TAP	39	288	7
TAP	39	336	6
STR	40	0	0
SI_	40	0	0	96	48	4
STR	40	48	4
SLR	40	48	4	96	48	0
TAP	40	240	7
TAP	40	288	0
TAP	40	336	1
TAP	41	0	2
TAP	41	0	6
TAP	41	48	1
TAP	41	48	5
TAP	41	96	0
TAP	41	96	4
STR	41	144	3
SCR	41	144	3	96	144	7
TAP	41	144	7
BRK	41	240	0
BRK	41	288	0
STR	42	0	1
SCR	42	0	1	96	96	4
TAP	42	144	7
STR	42	192	7
SCR	42	192	7	96	48	2
TAP	43	0	4
TAP	43	48	4
TAP	43	96	5
TAP	43	144	5
TAP	43	192	6
TAP	43	240	6
TAP	43	288	7
TAP	43	336	7
STR	44	0	6
SCL	44	0	6	96	96	3
TAP	44	144	0
STR	44	192	0
SCL	44	192	0	96	48	5
STR	45	0	4
SF_	45	0	4	96	144	0
STR	46	0	0
SI_	46	0	0	96	48	4
TAP	46	96	0
STR	46	192	7
SV_	46	192	7	96	48	5
STR	46	240	1
SV_	46	240	1	96	48	3
STR	47	0	7
SI_	47	0	7	96	48	3
TAP	47	96	7
STR	47	192	0
SV_	47	192	0	96	48	2
STR	47	240	6
SV_	47	240	6	96	48	4
BRK	48	0	1
BRK	48	48	1
TAP	48	96	4
TAP	48	96	5
TAP	48	144	4
TAP	48	144	5
BRK	48	192	6
BRK	48	240	6
TAP	48	288	2
TAP	48	288	3
TAP	48	336	2
TAP	48	336	3
TAP	49	0	0
TAP	49	0	1
TAP	49	48	2
TAP	49	48	3
TAP	49	96	4
TAP	49	96	5
TAP	49	144	6
TAP	49	144	7
TAP	49	192	0
TAP	49	192	7
TAP	49	240	1
TAP	49	240	6
TAP	49	336	3
TAP	49	336	4
BST	50	0	2
SUL	50	0	2	96	192	5
BST	50	0	5
SCR	50	0	5	96	192	2
STR	51	0	7
SXR	51	0	7	96	240	4
STR	52	0	0
SXL	52	0	0	96	240	3
STR	53	0	6
SXL	53	0	6	96	240	1
STR	54	0	2
SXL	54	0	2	96	240	5
STR	55	0	6
SI_	55	0	6	96	48	2
STR	55	96	7
SLL	55	96	7	96	96	3
STR	56	0	1
SI_	56	0	1	96	48	5
STR	56	96	0
SLR	56	96	0	96	96	4
TAP	57	0	2
TAP	57	0	3
TAP	57	48	1
TAP	57	96	2
TAP	57	96	3
TAP	57	144	1
TAP	57	192	4
TAP	57	192	5
TAP	57	240	6
TAP	57	288	4
TAP	57	288	5
TAP	57	336	6
TAP	58	0	3
TAP	58	0	4
TAP	58	48	1
TAP	58	48	6
TAP	58	96	2
TAP	58	96	5
BRK	58	144	0
BRK	58	144	7
STR	58	240	0
SI_	58	240	0	96	48	4
TAP	58	288	7
TAP	58	336	0
STR	59	0	7
SCL	59	0	7	96	48	4
STR	59	48	4
SUL	59	48	4	96	48	7
STR	59	240	0
SI_	59	240	0	96	48	4
TAP	59	288	7
TAP	59	336	0
STR	60	0	7
SUR	60	0	7	96	48	4
STR	60	48	4
SCR	60	48	4	96	48	7
STR	60	240	1
SI_	60	240	1	96	48	5
TAP	60	288	0
TAP	60	336	1
STR	61	0	7
SI_	61	0	7	96	48	2
STR	61	48	2
SUL	61	48	2	96	48	5
STR	61	240	6
SI_	61	240	6	96	48	2
TAP	61	288	7
TAP	61	336	6
STR	62	0	0
SI_	62	0	0	96	48	5
STR	62	48	5
SUR	62	48	5	96	48	2
STR	62	240	5
SI_	62	240	5	96	48	2
TAP	62	288	0
TAP	62	336	5
STR	63	0	0
SUR	63	0	0	96	48	4
STR	63	48	4
SCR	63	48	4	96	48	0
STR	63	240	2
SI_	63	240	2	96	48	5
TAP	63	288	7
TAP	63	336	2
STR	64	0	7
SUL	64	0	7	96	48	3
STR	64	48	3
SCL	64	48	3	96	48	7
TAP	64	240	1
TAP	64	240	5
TAP	64	288	1
TAP	64	288	5
TAP	65	0	0
TAP	65	0	7
STR	65	48	0
SXL	65	48	0	96	48	2
TAP	65	48	7
STR	65	144	4
SXL	65	144	4	96	48	6
TAP	65	240	3
TAP	65	288	2
TAP	65	336	1
TAP	66	0	0
TAP	66	0	4
TAP	66	48	1
TAP	66	48	5
TAP	66	96	2
TAP	66	96	6
BRK	66	144	3
BRK	66	144	7
STR	66	240	0
SI_	66	240	0	96	48	4
TAP	66	288	6
TAP	66	336	0
STR	67	0	6
SCR	67	0	6	96	48	1
STR	67	48	1
SUR	67	48	1	96	48	6
STR	67	240	7
SI_	67	240	7	96	48	3
TAP	67	288	1
TAP	67	336	7
STR	68	0	1
SCL	68	0	1	96	48	6
STR	68	48	6
SUL	68	48	6	96	48	1
STR	68	240	0
SI_	68	240	0	96	48	4
TAP	68	288	6
TAP	68	336	0
STR	69	0	6
SLL	69	0	6	96	48	2
STR	69	48	2
SLL	69	48	2	96	48	6
STR	69	240	7
SI_	69	240	7	96	48	3
TAP	69	288	1
TAP	69	336	7
BRK	70	0	0
BRK	70	48	1
BRK	70	48	7
BRK	70	96	2
BRK	70	96	6
BRK	70	144	3
BRK	70	144	5
STR	70	240	4
SI_	70	240	4	96	48	7
TAP	70	288	1
TAP	70	336	4
STR	71	0	1
SI_	71	0	1	96	48	4
STR	71	48	4
SLR	71	48	4	96	48	1
STR	71	240	3
SI_	71	240	3	96	48	0
TAP	71	288	6
TAP	71	336	3
STR	72	0	6
SI_	72	0	6	96	48	3
STR	72	48	3
SLL	72	48	3	96	48	6
STR	72	240	0
SI_	72	240	0	96	48	4
TAP	72	288	7
TAP	72	336	0
TAP	73	0	6
STR	73	48	2
SI_	73	48	2	96	48	5
STR	73	48	6
SI_	73	48	6	96	48	1
TAP	73	240	0
TAP	73	240	4
TAP	73	288	3
TAP	73	288	7
TAP	73	336	2
TAP	73	336	6
TAP	74	0	1
TAP	74	0	5
TAP	74	48	0
TAP	74	48	4
TAP	74	96	2
TAP	74	96	6
BRK	74	144	0
BRK	74	144	4
TAP	74	240	7
STR	74	288	7
SCL	74	288	7	96	48	4
SCR	74	288	7	96	48	2
STR	75	96	0
SCL	75	96	0	96	48	5
SCR	75	96	0	96	48	3
TAP	75	288	4
TAP	75	336	4
TAP	76	0	3
TAP	76	0	5
STR	76	48	4
SF_	76	48	4	96	192	0
TAP	76	96	2
TAP	76	96	6

T_REC_TAP	256
T_REC_BRK	26
T_REC_XTP	0
T_REC_HLD	0
T_REC_XHO	0
T_REC_STR	136
T_REC_BST	3
T_REC_XST	0
T_REC_TTP	0
T_REC_THO	0
T_REC_SLD	149
T_REC_ALL	570
T_NUM_TAP	392
T_NUM_BRK	29
T_NUM_HLD	0
T_NUM_SLD	149
T_NUM_ALL	570
T_JUDGE_TAP	421
T_JUDGE_HLD	0
T_JUDGE_SLD	149
T_JUDGE_ALL	570
TTM_EACHPAIRS	69
TTM_SCR_TAP	196000
TTM_SCR_BRK	75400
TTM_SCR_HLD	0
TTM_SCR_SLD	223500
TTM_SCR_ALL	494900
TTM_SCR_S	477250
TTM_SCR_SS	492000
TTM_RAT_ACV	10058

