VERSION	0.00.00	1.03.00
FES_MODE	0
BPM_DEF	164.000	164.000	164.000	164.000
MET_DEF	4	4
RESOLUTION	384
CLK_DEF	384
COMPATIBLE_CODE	MA2

BPM	0	0	164.000
MET	0	0	4	4

TAP	2	0	1
TAP	2	96	0
TAP	2	144	7
TAP	2	192	6
TAP	2	288	3
TAP	2	288	4
TAP	3	0	4
TAP	3	0	5
TAP	3	96	6
TAP	3	96	7
TAP	3	192	0
TAP	3	192	1
TAP	3	288	2
TAP	3	288	3
STR	4	0	1
SXR	4	0	1	96	192	3
STR	5	0	6
SXL	5	0	6	96	192	4
BRK	5	288	1
TAP	6	0	2
TAP	6	96	2
TAP	6	192	3
TAP	6	288	3
TAP	7	0	4
TAP	7	96	4
TAP	7	192	5
TAP	7	288	5
TAP	8	0	6
TAP	8	96	7
TAP	8	144	7
TAP	8	192	1
TAP	8	288	0
TAP	8	336	0
TAP	9	0	0
TAP	9	0	7
TAP	9	96	1
TAP	9	96	6
TAP	9	144	2
TAP	9	144	5
BRK	9	192	3
BRK	9	192	4
STR	10	0	2
SLL	10	0	2	96	192	4
STR	11	0	5
SLR	11	0	5	96	192	3
TAP	12	0	1
TAP	12	0	6
TAP	12	192	1
TAP	12	192	6
STR	13	0	0
SXL	13	0	0	96	192	2
STR	13	0	4
SXL	13	0	4	96	192	6
STR	14	0	0
SXL	14	0	0	96	192	6
STR	15	0	7
SXR	15	0	7	96	192	1
TAP	16	0	1
TAP	16	0	3
TAP	16	144	4
TAP	16	144	6
BRK	17	0	0
BRK	17	0	7
TAP	17	192	4
TAP	17	288	4
STR	18	0	4
SUR	18	0	4	96	96	2
STR	19	0	3
SUL	19	0	3	96	96	5
STR	20	0	4
SCR	20	0	4	96	48	6
STR	20	192	3
SCL	20	192	3	96	48	1
STR	21	0	5
SCR	21	0	5	96	48	7
STR	21	192	2
SCL	21	192	2	96	48	0
TAP	22	0	7
TAP	22	96	6
TAP	22	192	5
TAP	22	288	4
TAP	23	0	3
TAP	23	96	2
TAP	23	192	1
TAP	23	288	0
TAP	24	0	0
TAP	24	0	1
TAP	24	48	0
TAP	24	48	1
TAP	24	96	2
TAP	24	96	5
TAP	24	192	6
TAP	24	192	7
TAP	24	240	6
TAP	24	240	7
TAP	24	288	2
TAP	24	288	5
TAP	25	0	3
TAP	25	0	4
TAP	25	48	3
TAP	25	48	4
TAP	25	96	3
TAP	25	96	4
BRK	25	144	1
BRK	25	144	6
TAP	25	288	1
TAP	25	288	6
TAP	26	0	0
TAP	26	48	2
TAP	26	96	4
STR	26	144	6
SI_	26	144	6	96	48	2
TAP	26	288	0
TAP	27	0	7
TAP	27	48	5
TAP	27	96	3
STR	27	144	1
SI_	27	144	1	96	48	5
TAP	27	288	7
TAP	28	0	0
TAP	28	48	6
TAP	28	96	2
STR	28	144	4
SI_	28	144	4	96	48	0
TAP	28	288	2
TAP	29	0	7
TAP	29	48	1
TAP	29	96	5
BRK	29	144	3
TAP	29	240	1
TAP	29	240	7
TAP	29	288	2
TAP	29	288	6
TAP	29	336	3
TAP	29	336	5
TAP	30	0	4
TAP	30	48	0
TAP	30	96	6
STR	30	144	2
SCL	30	144	2	96	48	7
TAP	30	288	4
TAP	31	0	1
TAP	31	48	5
TAP	31	96	3
STR	31	144	7
SCL	31	144	7	96	48	4
TAP	31	288	1
TAP	32	0	5
TAP	32	48	3
TAP	32	96	7
TAP	32	144	1
TAP	32	240	0
TAP	32	240	4
TAP	32	288	2
TAP	32	288	6
TAP	33	0	0
TAP	33	0	4
TAP	33	48	1
TAP	33	48	5
TAP	33	96	2
TAP	33	96	6
BRK	33	144	3
BRK	33	144	7
TAP	33	240	7
TAP	33	288	6
TAP	33	336	5
STR	34	0	4
SCR	34	0	4	96	48	7
TAP	34	96	3
STR	34	144	3
SCL	34	144	3	96	48	0
STR	35	0	7
SCL	35	0	7	96	48	4
TAP	35	96	0
STR	35	144	0
SCR	35	144	0	96	48	3
STR	36	0	4
SV_	36	0	4	96	48	6
TAP	36	96	3
STR	36	144	3
SV_	36	144	3	96	48	1
TAP	37	0	1
TAP	37	0	6
TAP	37	48	1
TAP	37	48	6
TAP	37	96	2
TAP	37	96	5
BRK	37	144	3
BRK	37	144	4
TAP	37	240	1
TAP	37	288	6
STR	38	0	2
SI_	38	0	2	96	48	5
TAP	38	96	6
STR	38	144	6
SI_	38	144	6	96	48	1
TAP	38	288	3
STR	39	0	3
SI_	39	0	3	96	48	0
TAP	39	96	7
STR	39	144	7
SI_	39	144	7	96	48	4
TAP	39	288	2
STR	40	0	2
SI_	40	0	2	96	48	7
TAP	40	96	6
STR	40	144	6
SI_	40	144	6	96	48	3
TAP	40	288	1
TAP	41	0	0
TAP	41	0	4
TAP	41	48	1
TAP	41	48	5
TAP	41	96	2
TAP	41	96	6
TAP	41	144	3
TAP	41	144	7
TAP	41	288	0
TAP	41	288	7
STR	42	0	2
SCR	42	0	2	96	96	4
STR	42	192	6
SCL	42	192	6	96	96	3
STR	43	0	1
SCR	43	0	1	96	192	6
STR	44	0	5
SCL	44	0	5	96	96	3
STR	44	192	1
SCR	44	192	1	96	96	4
STR	45	0	6
SCL	45	0	6	96	192	1
TAP	46	0	0
TAP	46	0	6
TAP	46	96	1
TAP	46	96	5
TAP	46	192	7
TAP	46	240	7
TAP	46	288	0
TAP	46	336	0
TAP	47	0	1
TAP	47	0	7
TAP	47	96	2
TAP	47	96	6
TAP	47	192	0
TAP	47	240	0
TAP	47	288	7
TAP	47	336	7
TAP	48	0	0
TAP	48	0	1
TAP	48	96	6
TAP	48	96	7
TAP	48	192	0
TAP	48	192	1
TAP	48	288	6
TAP	48	288	7
TAP	49	0	0
TAP	49	48	7
TAP	49	96	0
TAP	49	144	7
TAP	49	192	1
TAP	49	240	6
TAP	49	288	0
TAP	49	336	7
BST	50	0	0
SF_	50	0	0	96	192	4
STR	51	0	6
SLL	51	0	6	96	192	2
STR	52	0	1
SLR	52	0	1	96	192	5
STR	53	0	7
SLL	53	0	7	96	168	2
STR	54	0	0
SLR	54	0	0	96	192	5
STR	55	0	0
SI_	55	0	0	96	48	2
STR	55	192	4
SI_	55	192	4	96	48	6
STR	56	0	2
SI_	56	0	2	96	48	4
STR	56	192	6
SI_	56	192	6	96	48	0
STR	57	0	1
SI_	57	0	1	96	48	5
STR	57	96	7
SI_	57	96	7	96	48	3
TAP	57	192	0
TAP	57	288	4
TAP	58	0	3
TAP	58	0	5
TAP	58	48	2
TAP	58	48	6
TAP	58	96	1
TAP	58	96	7
BRK	58	144	0
BRK	58	288	0
STR	59	0	6
SI_	59	0	6	96	48	3
TAP	59	96	2
STR	59	144	2
SI_	59	144	2	96	48	7
TAP	59	288	4
STR	60	0	0
SI_	60	0	0	96	48	4
STR	60	48	7
SI_	60	48	7	96	48	3
TAP	60	288	1
TAP	60	288	6
STR	61	0	1
SI_	61	0	1	96	48	4
TAP	61	96	5
STR	61	144	5
SI_	61	144	5	96	48	0
TAP	61	288	3
STR	62	0	7
SI_	62	0	7	96	48	3
STR	62	48	0
SI_	62	48	0	96	48	4
TAP	62	288	1
TAP	62	288	6
STR	63	0	0
SI_	63	0	0	96	48	2
TAP	63	96	4
STR	63	144	4
SI_	63	144	4	96	48	7
TAP	63	288	0
TAP	64	0	1
TAP	64	48	2
TAP	64	96	3
TAP	64	144	4
TAP	64	288	1
TAP	64	288	6
STR	65	0	7
SI_	65	0	7	96	48	5
TAP	65	96	3
STR	65	144	3
SI_	65	144	3	96	48	0
TAP	65	288	7
TAP	66	0	6
TAP	66	48	5
TAP	66	96	4
BRK	66	144	3
TAP	66	240	0
TAP	66	288	0
TAP	67	0	6
TAP	67	0	7
TAP	67	48	0
TAP	67	96	6
TAP	67	96	7
TAP	67	144	5
TAP	67	240	7
TAP	67	288	7
TAP	68	0	0
TAP	68	0	1
TAP	68	48	7
TAP	68	96	0
TAP	68	96	1
TAP	68	144	2
TAP	68	240	4
TAP	68	288	4
TAP	69	0	2
TAP	69	0	3
TAP	69	48	4
TAP	69	96	2
TAP	69	96	3
TAP	69	144	1
TAP	69	240	3
TAP	69	288	3
TAP	70	0	4
TAP	70	0	5
TAP	70	48	3
TAP	70	48	6
TAP	70	96	2
TAP	70	96	7
BRK	70	144	0
BRK	70	144	1
TAP	70	240	2
TAP	70	288	3
TAP	71	0	6
TAP	71	0	7
TAP	71	48	4
TAP	71	96	6
TAP	71	96	7
TAP	71	144	1
TAP	71	240	5
TAP	71	288	4
TAP	72	0	0
TAP	72	0	1
TAP	72	48	3
TAP	72	96	0
TAP	72	96	1
TAP	72	144	6
TAP	72	240	0
TAP	72	288	7
TAP	73	0	1
TAP	73	0	5
TAP	73	48	1
TAP	73	48	5
TAP	73	144	3
TAP	73	144	7
TAP	73	240	0
TAP	73	240	4
TAP	73	288	0
TAP	73	288	4
TAP	73	336	5
TAP	74	0	6
TAP	74	48	7
TAP	74	96	0
TAP	74	144	1
TAP	74	240	4
TAP	74	240	5
TAP	74	288	4
TAP	74	288	5
TAP	75	0	2
TAP	75	0	3
TAP	75	48	2
TAP	75	48	3
TAP	75	144	6
TAP	75	144	7
TAP	75	240	0
TAP	75	288	5
TAP	75	336	1
TAP	76	0	4
TAP	76	48	2
STR	76	96	3
SF_	76	96	3	96	192	7

T_REC_TAP	286
T_REC_BRK	17
T_REC_XTP	0
T_REC_HLD	0
T_REC_XHO	0
T_REC_STR	60
T_REC_BST	1
T_REC_XST	0
T_REC_TTP	0
T_REC_THO	0
T_REC_SLD	61
T_REC_ALL	425
T_NUM_TAP	346
T_NUM_BRK	18
T_NUM_HLD	0
T_NUM_SLD	61
T_NUM_ALL	425
T_JUDGE_TAP	364
T_JUDGE_HLD	0
T_JUDGE_SLD	61
T_JUDGE_ALL	425
TTM_EACHPAIRS	82
TTM_SCR_TAP	173000
TTM_SCR_BRK	46800
TTM_SCR_HLD	0
TTM_SCR_SLD	91500
TTM_SCR_ALL	311300
TTM_SCR_S	300250
TTM_SCR_SS	309500
TTM_RAT_ACV	10058

