VERSION	0.00.00	1.03.00
FES_MODE	0
BPM_DEF	164.000	164.000	164.000	164.000
MET_DEF	4	4
RESOLUTION	384
CLK_DEF	384
COMPATIBLE_CODE	MA2

BPM	0	0	164.000
MET	0	0	4	4

TAP	6	0	7
TAP	6	96	6
TAP	6	192	5
TAP	6	288	4
TAP	7	0	0
TAP	7	96	1
TAP	7	192	2
TAP	7	288	3
TAP	8	0	4
TAP	8	96	3
TAP	8	192	4
TAP	8	288	3
TAP	9	0	2
TAP	9	0	5
TAP	9	96	1
TAP	9	96	6
BRK	9	192	0
BRK	9	192	7
HLD	10	0	1	384
HLD	11	0	3	384
HLD	12	0	4	384
HLD	13	0	6	192
TAP	14	0	1
TAP	14	96	0
TAP	14	96	1
TAP	15	0	2
TAP	15	96	2
TAP	15	96	3
TAP	16	0	4
TAP	16	96	4
TAP	16	96	5
TAP	17	0	6
STR	17	96	6
SI_	17	96	6	96	192	2
STR	18	0	0
SI_	18	0	0	96	192	4
STR	19	0	7
SI_	19	0	7	96	192	3
STR	20	0	1
SI_	20	0	1	96	192	6
STR	21	0	5
SI_	21	0	5	96	192	2
TAP	22	0	5
TAP	22	192	4
TAP	22	192	5
TAP	23	0	2
TAP	23	192	2
TAP	23	192	3
TAP	24	0	1
TAP	24	96	0
TAP	24	192	7
TAP	24	288	6
STR	25	0	0
SI_	25	0	0	96	72	3
STR	25	0	7
SI_	25	0	7	96	72	4
TAP	26	0	2
TAP	26	96	3
HLD	26	192	5	96
TAP	26	288	4
TAP	27	0	5
TAP	27	96	4
HLD	27	192	2	96
TAP	27	288	3
TAP	28	0	5
TAP	28	96	3
HLD	28	192	4	96
TAP	28	288	2
TAP	29	0	2
TAP	29	0	3
TAP	29	96	4
TAP	29	96	5
TAP	29	192	3
TAP	29	192	4
TAP	29	288	1
TAP	29	288	6
TAP	30	0	2
TAP	30	96	2
TAP	30	192	2
TAP	30	288	2
TAP	30	288	3
TAP	31	0	6
TAP	31	96	6
TAP	31	192	6
TAP	31	288	6
TAP	31	288	7
TAP	32	0	4
TAP	32	96	4
TAP	32	192	4
TAP	32	288	4
TAP	32	288	5
TAP	33	0	1
TAP	33	96	1
TAP	33	192	1
BRK	33	288	0
BRK	33	288	1
TAP	34	0	7
TAP	34	96	6
TAP	34	144	6
TAP	34	288	0
TAP	34	288	7
TAP	35	0	0
TAP	35	96	1
TAP	35	144	1
TAP	35	288	0
TAP	35	288	7
TAP	36	0	2
TAP	36	96	3
TAP	36	144	3
TAP	36	288	0
TAP	36	288	7
TAP	37	0	5
TAP	37	96	4
TAP	37	144	4
TAP	37	288	0
TAP	37	288	7
TAP	38	0	3
TAP	38	0	4
TAP	38	96	2
TAP	38	144	2
TAP	38	288	2
TAP	38	288	3
TAP	39	0	3
TAP	39	0	4
TAP	39	96	5
TAP	39	144	5
TAP	39	288	4
TAP	39	288	5
TAP	40	0	3
TAP	40	0	4
TAP	40	96	2
TAP	40	192	1
TAP	40	288	0
TAP	41	0	7
TAP	41	96	6
TAP	41	192	5
TAP	41	288	4
HLD	42	0	2	192
HLD	42	192	3	192
STR	43	0	4
SI_	43	0	4	96	144	0
HLD	44	0	5	192
HLD	44	192	4	192
STR	45	0	3
SI_	45	0	3	96	144	7
STR	46	0	1
SCL	46	0	1	96	192	6
STR	47	0	5
SUR	47	0	5	96	192	2
TAP	48	0	3
TAP	48	96	3
TAP	48	192	4
TAP	48	288	4
TAP	49	0	6
TAP	49	96	6
TAP	49	192	0
BST	49	288	0
SF_	49	288	0	96	432	4
HLD	52	0	6	192
TAP	52	192	7
HLD	53	0	0	192
TAP	53	192	1
HLD	54	0	2	192
TAP	54	192	3
TAP	55	0	3
TAP	55	0	4
TAP	56	0	3
TAP	56	0	4
TAP	57	0	2
TAP	57	0	3
TAP	57	96	2
TAP	57	96	3
TAP	57	192	4
TAP	57	192	5
TAP	57	288	4
TAP	57	288	5
TAP	58	0	4
TAP	58	48	3
TAP	58	96	4
BRK	58	144	3
TAP	59	0	2
TAP	59	96	2
TAP	59	96	3
TAP	59	192	5
TAP	59	288	4
TAP	59	288	5
TAP	60	0	2
TAP	60	96	2
TAP	60	96	3
TAP	60	192	5
TAP	60	288	4
TAP	60	288	5
TAP	61	0	2
TAP	61	96	1
TAP	61	96	3
TAP	61	192	5
TAP	61	288	4
TAP	61	288	6
TAP	62	0	2
TAP	62	0	3
TAP	62	96	1
TAP	62	96	3
TAP	62	192	4
TAP	62	192	5
BRK	62	288	4
BRK	62	288	6
TAP	63	0	0
TAP	63	0	1
TAP	63	96	2
TAP	63	96	7
TAP	63	192	2
TAP	63	192	3
TAP	63	288	1
TAP	63	288	4
TAP	64	0	6
TAP	64	0	7
TAP	64	96	0
TAP	64	96	5
TAP	64	192	4
TAP	64	192	5
TAP	64	288	3
TAP	64	288	6
TAP	65	0	2
TAP	65	96	1
TAP	65	192	0
TAP	65	288	7
TAP	66	0	0
TAP	66	48	7
TAP	66	96	0
BRK	66	144	7
TAP	66	288	0
TAP	66	288	7
TAP	67	0	1
TAP	67	0	6
TAP	67	96	0
TAP	67	144	7
TAP	67	288	1
TAP	67	288	2
TAP	68	0	1
TAP	68	0	6
TAP	68	96	7
TAP	68	144	0
TAP	68	288	5
TAP	68	288	6
TAP	69	0	1
TAP	69	0	6
TAP	69	96	0
TAP	69	144	0
STR	69	288	0
SCR	69	288	0	96	144	3
STR	69	288	4
SCR	69	288	4	96	144	7
HLD	71	0	2	96
TAP	71	96	3
TAP	71	144	3
TAP	71	288	1
TAP	71	288	4
HLD	72	0	5	96
TAP	72	96	4
TAP	72	144	4
TAP	72	288	3
TAP	72	288	6
HLD	73	0	1	96
TAP	73	96	0
HLD	73	192	6	96
TAP	73	288	7
TAP	74	0	0
TAP	74	48	7
TAP	74	96	0
BRK	74	144	7
STR	74	288	0
SV_	74	288	0	96	96	5
STR	75	96	7
SV_	75	96	7	96	96	2
STR	76	0	0
SSL	76	0	0	96	192	4

T_REC_TAP	215
T_REC_BRK	9
T_REC_XTP	0
T_REC_HLD	18
T_REC_XHO	0
T_REC_STR	16
T_REC_BST	1
T_REC_XST	0
T_REC_TTP	0
T_REC_THO	0
T_REC_SLD	17
T_REC_ALL	276
T_NUM_TAP	231
T_NUM_BRK	10
T_NUM_HLD	18
T_NUM_SLD	17
T_NUM_ALL	276
T_JUDGE_TAP	241
T_JUDGE_HLD	70
T_JUDGE_SLD	17
T_JUDGE_ALL	328
TTM_EACHPAIRS	59
TTM_SCR_TAP	115500
TTM_SCR_BRK	26000
TTM_SCR_HLD	18000
TTM_SCR_SLD	25500
TTM_SCR_ALL	185000
TTM_SCR_S	178500
TTM_SCR_SS	184000
TTM_RAT_ACV	10054

