VERSION	0.00.00	1.03.00
FES_MODE	0
BPM_DEF	164.000	164.000	164.000	164.000
MET_DEF	4	4
RESOLUTION	384
CLK_DEF	384
COMPATIBLE_CODE	MA2

BPM	0	0	164.000
MET	0	0	4	4

TAP	6	0	7
TAP	7	0	6
TAP	8	0	0
TAP	9	0	1
HLD	10	0	2	192
HLD	11	0	3	192
HLD	12	0	4	192
HLD	13	0	5	192
TAP	14	0	6
TAP	15	0	0
TAP	16	0	7
BRK	17	0	1
STR	18	0	1
SI_	18	0	1	96	288	5
STR	20	0	6
SI_	20	0	6	96	288	2
TAP	22	0	3
TAP	22	192	3
TAP	23	0	4
TAP	23	192	4
TAP	24	0	3
TAP	24	192	4
TAP	25	0	2
TAP	25	0	5
BRK	25	96	2
BRK	25	96	5
TAP	26	0	1
TAP	26	96	1
TAP	26	192	1
TAP	27	0	0
TAP	27	96	0
TAP	27	192	0
TAP	28	0	7
TAP	28	96	7
TAP	28	192	7
TAP	29	0	6
TAP	29	96	6
TAP	29	192	6
TAP	30	0	0
TAP	30	96	0
TAP	30	192	1
TAP	31	0	7
TAP	31	96	7
TAP	31	192	6
TAP	32	0	4
TAP	32	96	4
TAP	32	192	3
TAP	33	0	3
TAP	33	96	3
TAP	33	192	3
TAP	33	192	4
HLD	34	0	6	192
HLD	35	0	7	192
HLD	36	0	0	192
HLD	37	0	1	192
STR	38	0	2
SI_	38	0	2	96	288	6
STR	40	0	5
SI_	40	0	5	96	288	1
HLD	42	0	0	384
HLD	44	0	7	384
TAP	46	0	6
TAP	46	192	6
TAP	47	0	5
TAP	47	192	5
TAP	48	0	4
TAP	48	96	4
TAP	49	0	3
TAP	49	96	3
BRK	50	0	3
BRK	50	0	4
TAP	51	0	2
TAP	52	0	1
TAP	53	0	2
TAP	54	0	0
TAP	55	0	6
TAP	56	0	5
TAP	57	0	6
BRK	58	0	7
STR	59	0	7
SI_	59	0	7	96	192	3
STR	61	0	0
SI_	61	0	0	96	192	4
STR	63	0	6
SI_	63	0	6	96	192	1
STR	65	0	2
SI_	65	0	2	96	192	5
TAP	67	0	6
TAP	67	96	6
TAP	68	0	7
TAP	68	96	7
TAP	69	0	0
TAP	69	96	0
TAP	70	0	0
TAP	70	0	7
TAP	70	96	0
TAP	70	96	7
TAP	71	0	1
TAP	71	96	1
TAP	71	192	0
TAP	72	0	6
TAP	72	96	6
TAP	72	192	7
TAP	73	0	5
TAP	73	192	4
TAP	74	0	3
TAP	74	96	3
TAP	75	0	4
TAP	75	192	5
STR	76	0	6
SI_	76	0	6	96	288	2

T_REC_TAP	77
T_REC_BRK	6
T_REC_XTP	0
T_REC_HLD	10
T_REC_XHO	0
T_REC_STR	9
T_REC_BST	0
T_REC_XST	0
T_REC_TTP	0
T_REC_THO	0
T_REC_SLD	9
T_REC_ALL	111
T_NUM_TAP	86
T_NUM_BRK	6
T_NUM_HLD	10
T_NUM_SLD	9
T_NUM_ALL	111
T_JUDGE_TAP	92
T_JUDGE_HLD	48
T_JUDGE_SLD	9
T_JUDGE_ALL	149
TTM_EACHPAIRS	6
TTM_SCR_TAP	43000
TTM_SCR_BRK	15600
TTM_SCR_HLD	10000
TTM_SCR_SLD	13500
TTM_SCR_ALL	82100
TTM_SCR_S	79100
TTM_SCR_SS	81500
TTM_RAT_ACV	10073

