VERSION	0.00.00	1.03.00
FES_MODE	0
BPM_DEF	225.500	225.500	225.500	225.500
MET_DEF	4	4
RESOLUTION	384
CLK_DEF	384
COMPATIBLE_CODE	MA2

BPM	0	0	225.500
MET	0	0	4	4

TAP	3	0	2
TAP	3	32	3
TAP	3	64	2
TAP	3	96	5
TAP	3	128	4
TAP	3	160	5
TAP	3	192	2
TAP	3	224	3
TAP	3	256	2
TAP	3	288	6
TAP	3	352	6
TAP	4	0	2
TAP	4	32	3
TAP	4	64	2
TAP	4	96	5
TAP	4	128	4
TAP	4	160	5
TAP	4	192	2
TAP	4	224	3
TAP	4	256	2
TAP	4	288	7
TAP	5	0	5
TAP	5	32	4
TAP	5	64	5
TAP	5	96	2
TAP	5	128	3
TAP	5	160	2
TAP	5	192	5
TAP	5	224	4
TAP	5	256	5
TAP	5	288	1
TAP	5	352	1
TAP	6	0	5
TAP	6	32	4
TAP	6	64	5
TAP	6	96	2
TAP	6	128	3
TAP	6	160	2
TAP	6	192	5
TAP	6	224	4
TAP	6	256	5
TAP	6	288	0
TAP	7	0	2
TAP	7	32	3
TAP	7	64	2
TAP	7	96	5
TAP	7	128	4
TAP	7	160	5
TAP	7	192	2
TAP	7	224	3
TAP	7	256	2
TAP	7	288	7
TAP	7	352	0
TAP	8	0	5
TAP	8	32	4
TAP	8	64	5
TAP	8	96	2
TAP	8	128	3
TAP	8	160	2
TAP	8	192	5
TAP	8	224	4
TAP	8	256	5
TAP	8	288	0
TAP	8	352	7
TAP	9	0	2
TAP	9	32	3
TAP	9	64	2
TAP	9	96	7
TAP	9	160	0
TAP	9	192	5
TAP	9	224	4
TAP	9	256	5
TAP	9	288	0
TAP	9	352	7
TAP	10	0	0
TAP	10	24	1
TAP	10	48	2
TAP	10	72	3
TAP	10	96	7
TAP	10	120	6
TAP	10	144	5
TAP	10	168	4
TAP	10	192	0
TAP	10	216	1
TAP	10	240	2
TAP	10	264	3
TAP	10	288	7
TAP	10	312	6
TAP	10	336	5
TAP	10	360	4
BRK	11	0	0
TAP	11	16	1
TAP	11	32	2
TAP	11	48	3
TAP	11	64	4
TAP	11	80	5
TAP	11	96	6
TAP	11	112	7
TAP	11	128	0
TAP	11	144	1
TAP	11	160	2
TAP	11	176	3
TAP	11	192	4
TAP	11	208	5
TAP	11	224	6
TAP	11	240	7
TAP	11	256	0
TAP	11	272	1
TAP	11	288	2
TAP	11	304	3
TAP	11	320	4
TAP	11	336	5
TAP	11	352	6
TAP	11	368	7
TAP	12	0	0
TAP	12	16	1
TAP	12	32	2
TAP	12	48	3
TAP	12	64	4
TAP	12	80	5
TAP	12	96	6
TAP	12	112	7
TAP	12	128	0
TAP	12	144	1
TAP	12	160	2
TAP	12	176	3
BRK	12	192	5
TAP	12	240	5
TAP	12	288	1
TAP	12	336	1
HLD	13	0	7	240
TAP	13	240	3
TAP	13	288	3
TAP	13	336	5
STR	14	0	1
SCR	14	0	1	96	96	4
STR	14	96	4
SCR	14	96	4	96	96	7
STR	14	192	7
SCR	14	192	7	96	96	2
STR	14	288	2
SCR	14	288	2	96	96	5
HLD	15	0	6	240
TAP	15	240	3
TAP	15	288	3
TAP	15	336	5
STR	16	0	1
SCL	16	0	1	96	96	6
STR	16	96	6
SCL	16	96	6	96	96	3
STR	16	192	3
SCL	16	192	3	96	96	0
TAP	16	288	7
HLD	17	0	6	96
HLD	17	96	4	96
HLD	17	192	2	96
HLD	17	288	0	96
TAP	18	0	7
TAP	18	72	1
TAP	18	72	6
TAP	18	144	0
TAP	18	144	7
TAP	18	192	0
TAP	18	192	7
TAP	19	0	6
TAP	19	0	7
TAP	19	96	0
TAP	19	96	5
TAP	19	192	1
TAP	19	192	4
TAP	19	288	2
TAP	19	288	3
STR	20	0	3
SI_	20	0	3	96	96	7
STR	20	96	7
SI_	20	96	7	96	96	3
STR	20	192	3
SI_	20	192	3	96	48	1
SI_	20	192	3	96	48	5
HLD	21	0	0	240
TAP	21	240	4
TAP	21	288	4
TAP	21	336	2
STR	22	0	6
SCL	22	0	6	96	96	3
STR	22	96	3
SCL	22	96	3	96	96	0
STR	22	192	0
SCL	22	192	0	96	96	5
STR	22	288	5
SCL	22	288	5	96	96	2
HLD	23	0	0	240
TAP	23	240	4
TAP	23	288	4
TAP	23	336	2
STR	24	0	6
SCR	24	0	6	96	96	1
STR	24	96	1
SCR	24	96	1	96	96	4
STR	24	192	4
SCR	24	192	4	96	96	7
TAP	24	288	0
HLD	25	0	1	96
HLD	25	96	3	96
HLD	25	192	5	96
HLD	25	288	7	96
TAP	26	0	0
TAP	26	72	1
TAP	26	72	6
TAP	26	144	0
TAP	26	144	7
TAP	26	192	0
TAP	26	192	7
TAP	27	0	0
TAP	27	48	0
TAP	27	96	7
TAP	27	144	7
TAP	27	192	1
TAP	27	240	1
TAP	27	288	6
TAP	27	336	6
TAP	28	0	0
TAP	28	24	7
TAP	28	48	0
TAP	28	72	7
TAP	28	96	0
TAP	28	120	7
TAP	28	144	0
TAP	28	168	7
TAP	28	192	0
TAP	28	216	7
TAP	28	240	0
TAP	28	264	7
TAP	28	288	0
TAP	28	312	7
TAP	28	336	0
TAP	28	360	7
TAP	29	0	0
TAP	29	12	1
TAP	29	24	2
TAP	29	36	3
TAP	29	48	4
TAP	29	60	5
TAP	29	72	6
TAP	29	84	7
TAP	29	96	0
TAP	29	108	1
TAP	29	120	2
TAP	29	132	3
TAP	29	144	4
TAP	29	156	5
TAP	29	168	6
TAP	29	180	7
BRK	29	192	0
STR	30	0	7
SI_	30	0	7	96	48	2
SI_	30	0	7	96	48	4
TAP	30	48	0
TAP	30	48	6
TAP	30	96	7
STR	30	192	3
SI_	30	192	3	96	48	0
SI_	30	192	3	96	48	6
TAP	30	240	2
TAP	30	240	4
TAP	30	288	3
TAP	31	0	7
TAP	31	48	7
TAP	31	96	0
TAP	31	144	0
STR	31	192	5
SI_	31	192	5	96	48	1
TAP	31	240	5
TAP	31	288	2
STR	32	0	3
SCL	32	0	3	96	96	7
TAP	32	48	3
STR	32	96	7
SCL	32	96	7	96	96	3
TAP	32	144	7
STR	32	192	3
SI_	32	192	3	96	96	7
TAP	32	240	3
TAP	32	288	6
TAP	33	0	4
STR	33	48	4
SCR	33	48	4	96	48	7
TAP	33	96	4
TAP	33	144	3
TAP	33	160	2
TAP	33	176	1
TAP	33	192	0
TAP	33	264	5
TAP	33	336	6
STR	34	0	0
SCR	34	0	0	96	48	3
TAP	34	48	0
TAP	34	96	7
TAP	34	112	6
TAP	34	128	5
TAP	34	144	4
TAP	34	192	1
TAP	34	240	1
TAP	34	288	7
TAP	35	0	6
STR	35	48	3
SCL	35	48	3	96	48	0
TAP	35	96	3
TAP	35	144	4
TAP	35	160	5
TAP	35	176	6
TAP	35	192	7
TAP	35	240	2
TAP	35	288	6
TAP	35	336	1
STR	36	0	3
SCL	36	0	3	96	96	7
TAP	36	48	3
STR	36	96	7
SCL	36	96	7	96	96	3
TAP	36	144	7
TAP	36	192	3
TAP	36	240	3
TAP	36	288	7
HLD	37	0	5	96
TAP	37	48	0
HLD	37	96	2	96
TAP	37	144	7
HLD	37	192	5	96
TAP	37	240	0
TAP	37	288	2
STR	38	0	3
SCL	38	0	3	96	48	0
TAP	38	48	3
STR	38	96	5
SCR	38	96	5	96	48	0
TAP	38	144	5
STR	38	192	4
SI_	38	192	4	96	48	0
TAP	38	240	4
STR	38	288	5
SCR	38	288	5	96	48	0
TAP	38	336	5
STR	39	0	3
SCL	39	0	3	96	48	0
TAP	39	48	3
STR	39	96	4
SUR	39	96	4	96	48	0
TAP	39	144	4
STR	39	192	3
SCL	39	192	3	96	48	0
TAP	39	240	3
STR	39	288	5
SCR	39	288	5	96	48	0
TAP	39	336	5
STR	40	0	3
SI_	40	0	3	96	48	0
TAP	40	48	3
STR	40	96	5
SI_	40	96	5	96	48	0
TAP	40	144	5
STR	40	192	4
SUL	40	192	4	96	48	0
TAP	40	240	4
STR	40	288	5
SCR	40	288	5	96	48	0
TAP	40	336	5
STR	41	0	3
SCL	41	0	3	96	48	0
TAP	41	48	3
STR	41	96	4
SF_	41	96	4	96	48	0
TAP	41	144	4
TAP	41	192	4
STR	42	0	0
SI_	42	0	0	96	48	2
STR	42	0	4
SI_	42	0	4	96	48	6
TAP	42	96	0
TAP	42	96	4
STR	42	192	3
SI_	42	192	3	96	48	1
STR	42	192	7
SI_	42	192	7	96	48	5
TAP	42	288	3
TAP	42	288	7
STR	43	0	0
SI_	43	0	0	96	48	3
STR	43	0	4
SI_	43	0	4	96	48	7
TAP	43	96	0
TAP	43	96	4
TAP	43	192	5
TAP	43	264	6
TAP	43	336	7
TAP	44	0	3
TAP	44	48	2
TAP	44	96	1
TAP	44	144	0
TAP	44	192	7
TAP	44	240	6
TAP	44	288	5
TAP	44	336	4
BRK	45	0	1
BRK	45	0	3
BRK	45	72	4
BRK	45	72	6
BRK	45	144	0
BRK	45	144	7
TAP	45	192	4
TAP	45	204	3
TAP	45	216	2
TAP	45	228	1
TAP	45	240	0
TAP	45	252	7
TAP	45	264	6
TAP	45	276	5
BRK	45	288	4
TAP	46	0	2
TAP	46	48	6
TAP	46	96	3
TAP	46	120	4
TAP	46	144	3
TAP	46	168	4
TAP	46	192	3
TAP	46	240	5
TAP	46	288	0
TAP	46	312	7
TAP	46	336	0
TAP	46	360	7
TAP	47	0	0
TAP	47	24	1
TAP	47	48	2
TAP	47	72	3
TAP	47	96	7
TAP	47	120	6
TAP	47	144	5
TAP	47	168	4
TAP	47	192	1
TAP	47	216	2
TAP	47	240	3
TAP	47	264	4
TAP	47	288	6
TAP	47	312	5
TAP	47	336	4
TAP	47	360	3
TAP	48	0	1
TAP	48	48	5
TAP	48	96	3
TAP	48	120	4
TAP	48	144	3
TAP	48	168	4
TAP	48	192	3
TAP	48	240	6
TAP	48	288	1
TAP	48	312	0
TAP	48	336	1
TAP	48	360	0
TAP	49	0	1
TAP	49	24	2
TAP	49	48	3
TAP	49	72	4
TAP	49	96	6
TAP	49	120	5
TAP	49	144	4
TAP	49	168	3
TAP	49	192	0
TAP	49	216	1
TAP	49	240	2
TAP	49	264	3
TAP	49	288	7
TAP	49	312	6
TAP	49	336	5
TAP	49	360	4
STR	50	0	2
SCL	50	0	2	96	48	0
TAP	50	48	2
STR	50	96	4
SI_	50	96	4	96	48	0
TAP	50	144	4
STR	50	192	3
SI_	50	192	3	96	48	7
TAP	50	240	3
STR	50	288	5
SCR	50	288	5	96	48	7
TAP	50	336	5
TAP	51	0	0
TAP	51	72	1
TAP	51	144	2
TAP	51	144	7
STR	51	192	2
SXR	51	192	2	96	48	0
STR	51	192	7
SXR	51	192	7	96	48	5
TAP	52	0	1
TAP	52	24	2
TAP	52	48	3
TAP	52	72	4
TAP	52	96	7
TAP	52	120	6
TAP	52	144	5
TAP	52	168	4
TAP	52	192	0
TAP	52	216	1
TAP	52	240	2
TAP	52	264	3
TAP	52	288	6
TAP	52	312	5
TAP	52	336	4
TAP	52	360	3
TAP	53	0	1
TAP	53	48	1
STR	53	96	3
SI_	53	96	3	96	48	1
TAP	53	144	3
STR	53	192	3
SI_	53	192	3	96	48	5
STR	53	264	3
SI_	53	264	3	96	48	7
TAP	53	336	3
TAP	54	0	6
TAP	54	48	2
TAP	54	96	4
TAP	54	120	3
TAP	54	144	4
TAP	54	168	3
TAP	54	192	4
TAP	54	240	2
TAP	54	288	7
TAP	54	312	0
TAP	54	336	7
TAP	54	360	0
TAP	55	0	7
TAP	55	24	6
TAP	55	48	5
TAP	55	72	4
TAP	55	96	0
TAP	55	120	1
TAP	55	144	2
TAP	55	168	3
TAP	55	192	6
TAP	55	216	5
TAP	55	240	4
TAP	55	264	3
TAP	55	288	1
TAP	55	312	2
TAP	55	336	3
TAP	55	360	4
TAP	56	0	6
TAP	56	48	2
TAP	56	96	4
TAP	56	120	3
TAP	56	144	4
TAP	56	168	3
TAP	56	192	4
TAP	56	240	1
TAP	56	288	6
TAP	56	312	7
TAP	56	336	6
TAP	56	360	7
TAP	57	0	6
TAP	57	24	5
TAP	57	48	4
TAP	57	72	3
TAP	57	96	1
TAP	57	120	2
TAP	57	144	3
TAP	57	168	4
TAP	57	192	7
TAP	57	216	6
TAP	57	240	5
TAP	57	264	4
TAP	57	288	0
TAP	57	312	1
TAP	57	336	2
TAP	57	360	3
STR	58	0	5
SCR	58	0	5	96	48	7
TAP	58	48	5
STR	58	96	3
SI_	58	96	3	96	48	7
TAP	58	144	3
STR	58	192	4
SI_	58	192	4	96	48	0
TAP	58	240	4
STR	58	288	2
SCL	58	288	2	96	48	0
TAP	58	336	2
TAP	59	0	7
TAP	59	72	6
TAP	59	144	0
TAP	59	144	5
STR	59	192	0
SXL	59	192	0	96	48	2
STR	59	192	5
SXL	59	192	5	96	48	7
BRK	60	0	3
TAP	60	48	3
TAP	60	96	4
TAP	60	144	4
TAP	60	192	2
TAP	60	240	2
TAP	60	288	5
TAP	60	336	5
BRK	61	0	1
TAP	61	24	6
TAP	61	48	1
TAP	61	72	6
TAP	61	96	1
TAP	61	120	6
TAP	61	144	1
TAP	61	168	6
TAP	61	192	0
TAP	61	216	7
TAP	61	240	0
TAP	61	264	7
TAP	61	288	0
TAP	61	312	7
TAP	61	336	0
TAP	61	360	7
BRK	62	0	0
TAP	62	16	1
TAP	62	32	2
TAP	62	48	3
TAP	62	64	4
TAP	62	80	5
TAP	62	96	6
TAP	62	112	7
TAP	62	128	0
TAP	62	144	1
TAP	62	160	2
TAP	62	176	3
BRK	62	192	7
TAP	62	208	6
TAP	62	224	5
TAP	62	240	4
TAP	62	256	3
TAP	62	272	2
TAP	62	288	1
TAP	62	304	0
TAP	62	320	7
TAP	62	336	6
TAP	62	352	5
TAP	62	368	4
BRK	63	0	0
TAP	63	32	1
TAP	63	64	2
TAP	63	96	7
TAP	63	128	6
TAP	63	160	5
TAP	63	192	0
TAP	63	224	1
TAP	63	256	2
TAP	63	288	7
TAP	63	352	7
TAP	64	0	3
TAP	64	32	2
TAP	64	64	1
TAP	64	96	4
TAP	64	128	5
TAP	64	160	6
TAP	64	192	3
TAP	64	224	2
TAP	64	256	1
TAP	64	288	0
TAP	64	288	7
TAP	65	0	7
TAP	65	32	6
TAP	65	64	5
TAP	65	96	0
TAP	65	128	1
TAP	65	160	2
TAP	65	192	7
TAP	65	224	6
TAP	65	256	5
TAP	65	288	0
TAP	65	352	0
TAP	66	0	4
TAP	66	32	5
TAP	66	64	6
TAP	66	96	3
TAP	66	128	2
TAP	66	160	1
TAP	66	192	4
TAP	66	224	5
TAP	66	256	6
TAP	66	288	0
TAP	66	288	7
TAP	67	0	1
TAP	67	32	2
TAP	67	64	3
TAP	67	96	6
TAP	67	128	5
TAP	67	160	4
TAP	67	192	1
TAP	67	224	2
TAP	67	256	3
TAP	67	288	7
TAP	67	352	7
TAP	68	0	1
TAP	68	32	2
TAP	68	64	3
TAP	68	96	6
TAP	68	128	5
TAP	68	160	4
TAP	68	192	0
TAP	68	224	0
TAP	68	256	0
TAP	68	288	7
TAP	69	0	6
TAP	69	32	5
TAP	69	64	4
TAP	69	96	0
TAP	69	160	0
TAP	69	192	7
TAP	69	224	7
TAP	69	256	7
TAP	69	288	0
BRK	70	0	2
BRK	70	0	6
TAP	70	32	5
TAP	70	64	4
BRK	70	96	3
BRK	70	96	7
TAP	70	128	2
TAP	70	160	1
BRK	70	192	0
BRK	70	192	4
TAP	70	224	7
TAP	70	256	6
BRK	70	288	1
BRK	70	288	5
BST	71	0	7
SI_	71	0	7	96	48	3
TAP	71	96	0
TAP	71	96	7
BST	71	192	0
SI_	71	192	0	96	48	4
TAP	71	288	0
TAP	71	288	7
TAP	71	352	6
BST	72	0	6
SI_	72	0	6	96	48	2
TAP	72	96	6
TAP	72	96	7
BST	72	192	0
SI_	72	192	0	96	48	4
TAP	72	288	0
TAP	72	288	7
BST	73	0	6
SI_	73	0	6	96	48	2
TAP	73	96	6
TAP	73	96	7
BST	73	192	1
SI_	73	192	1	96	48	5
TAP	73	288	0
TAP	73	288	1
TAP	73	352	7
BST	74	0	7
SI_	74	0	7	96	48	3
TAP	74	96	0
TAP	74	96	7
BST	74	192	1
SI_	74	192	1	96	48	5
TAP	74	288	0
TAP	74	288	1
BST	75	0	0
SCL	75	0	0	96	48	5
SCR	75	0	0	96	48	3
BRK	75	96	0
BST	75	192	0
SF_	75	192	0	96	48	4
BRK	75	288	0
BST	76	0	7
SCL	76	0	7	96	48	4
SCR	76	0	7	96	48	2
BRK	76	96	7
BST	76	192	7
SF_	76	192	7	96	48	3
BRK	76	288	7
BRK	77	0	5
TAP	77	24	6
TAP	77	48	7
TAP	77	72	0
TAP	77	96	1
TAP	77	120	2
TAP	77	144	3
TAP	77	168	4
TAP	77	192	5
TAP	77	216	6
TAP	77	240	7
TAP	77	264	0
TAP	77	288	1
TAP	77	312	2
TAP	77	336	3
TAP	77	360	4
BRK	78	0	0
TAP	78	16	7
TAP	78	32	6
TAP	78	48	5
TAP	78	64	4
TAP	78	80	3
TAP	78	96	2
TAP	78	112	1
TAP	78	128	0
TAP	78	144	7
TAP	78	160	6
TAP	78	176	5
TAP	78	192	4
TAP	78	208	3
TAP	78	224	2
TAP	78	240	1
TAP	78	256	0
TAP	78	272	7
TAP	78	288	6
TAP	78	304	5
TAP	78	320	4
TAP	78	336	3
TAP	78	352	2
TAP	78	368	1
BRK	79	0	0
TAP	79	192	5
TAP	80	0	3
TAP	80	192	5
TAP	81	0	7
TAP	81	192	2
TAP	82	0	4
TAP	82	192	2
TAP	83	0	4
TAP	83	48	3
TAP	83	96	4
TAP	83	144	5
TAP	83	192	2
TAP	83	264	6
TAP	83	336	3
TAP	84	0	3
TAP	84	48	4
TAP	84	96	3
TAP	84	144	2
TAP	84	192	5
TAP	84	264	1
TAP	84	336	4
TAP	85	0	4
TAP	85	48	3
TAP	85	96	4
TAP	85	144	5
TAP	85	192	2
TAP	85	240	3
TAP	85	288	4
TAP	85	336	5
TAP	86	0	3
TAP	86	72	1
TAP	86	144	4
TAP	86	192	4
TAP	86	264	6
TAP	86	336	3
TAP	87	0	3
TAP	87	192	1
TAP	87	192	6
BRK	88	0	0
BRK	88	0	7
TAP	88	192	7
TAP	88	240	7
TAP	88	288	6
TAP	88	336	5
BRK	89	0	3
BRK	89	0	4
TAP	89	240	3
TAP	89	288	3
TAP	89	336	2
TAP	90	0	1
TAP	90	96	6
TAP	90	192	2
TAP	90	288	5
TAP	91	0	3
TAP	91	0	4
TAP	91	240	4
TAP	91	288	4
TAP	91	336	5
TAP	92	0	6
TAP	92	96	2
STR	92	192	4
SF_	92	192	4	96	48	0
BRK	92	288	4
STR	93	0	6
SCL	93	0	6	96	48	4
TAP	93	48	6
STR	93	96	0
SI_	93	96	0	96	48	4
TAP	93	144	0
STR	93	192	7
SI_	93	192	7	96	48	3
TAP	93	240	7
STR	93	288	1
SCR	93	288	1	96	48	3
TAP	93	336	1
TAP	94	0	4
TAP	94	72	5
TAP	94	144	1
TAP	94	144	6
STR	94	192	1
SV_	94	192	1	96	48	2
STR	94	192	6
SV_	94	192	6	96	48	5
TAP	95	0	3
TAP	95	24	2
TAP	95	48	1
TAP	95	72	0
TAP	95	96	4
TAP	95	120	5
TAP	95	144	6
TAP	95	168	7
TAP	95	192	2
TAP	95	216	1
TAP	95	240	0
TAP	95	264	7
TAP	95	288	5
TAP	95	312	6
TAP	95	336	7
TAP	95	360	0
TAP	96	0	2
TAP	96	48	2
STR	96	96	4
SI_	96	96	4	96	48	1
TAP	96	144	4
STR	96	192	4
SI_	96	192	4	96	48	7
TAP	96	264	4
BRK	96	336	0
TAP	97	0	1
TAP	97	24	6
TAP	97	48	1
TAP	97	72	6
TAP	97	96	1
TAP	97	120	6
TAP	97	144	1
TAP	97	168	6
TAP	97	192	0
TAP	97	216	7
TAP	97	240	0
TAP	97	264	7
TAP	97	288	0
TAP	97	312	7
TAP	97	336	0
TAP	97	360	7
TAP	98	0	0
TAP	98	24	1
TAP	98	48	2
TAP	98	72	3
TAP	98	96	6
TAP	98	120	5
TAP	98	144	4
TAP	98	168	3
TAP	98	192	1
TAP	98	216	2
TAP	98	240	3
TAP	98	264	4
TAP	98	288	7
TAP	98	312	6
TAP	98	336	5
TAP	98	360	4
TAP	99	0	1
TAP	99	24	6
TAP	99	48	1
TAP	99	72	6
TAP	99	96	2
TAP	99	120	5
TAP	99	144	2
TAP	99	168	5
TAP	99	192	1
TAP	99	216	6
TAP	99	240	1
TAP	99	264	6
TAP	99	288	0
TAP	99	312	7
TAP	99	336	0
TAP	99	360	7
TAP	100	0	0
TAP	100	24	1
TAP	100	48	7
TAP	100	72	6
TAP	100	96	1
TAP	100	120	2
TAP	100	144	6
TAP	100	168	5
TAP	100	192	1
TAP	100	216	2
TAP	100	240	6
TAP	100	264	5
TAP	100	288	2
TAP	100	312	3
TAP	100	336	5
TAP	100	360	4
TAP	101	0	3
TAP	101	24	5
TAP	101	48	3
TAP	101	72	5
TAP	101	96	2
TAP	101	120	4
TAP	101	144	2
TAP	101	168	4
TAP	101	192	1
TAP	101	216	5
TAP	101	240	1
TAP	101	264	5
TAP	101	288	2
TAP	101	312	6
TAP	101	336	2
TAP	101	360	6
TAP	102	0	1
TAP	102	24	5
TAP	102	48	1
TAP	102	72	5
TAP	102	96	0
TAP	102	120	4
TAP	102	144	0
TAP	102	168	4
TAP	102	192	1
TAP	102	216	5
TAP	102	240	1
TAP	102	264	5
TAP	102	288	2
TAP	102	312	6
TAP	102	336	2
TAP	102	360	6
TAP	103	0	3
TAP	103	24	7
TAP	103	48	3
TAP	103	72	7
TAP	103	96	2
TAP	103	120	6
TAP	103	144	2
TAP	103	168	6
TAP	103	192	3
TAP	103	216	5
TAP	103	240	3
TAP	103	264	5
TAP	103	288	2
TAP	103	312	6
TAP	103	336	2
TAP	103	360	6
BRK	104	0	1
TAP	104	16	0
TAP	104	32	7
TAP	104	48	6
TAP	104	64	5
TAP	104	80	4
TAP	104	96	3
TAP	104	112	2
TAP	104	128	1
TAP	104	144	0
TAP	104	160	7
TAP	104	176	6
TAP	104	192	5
TAP	104	208	4
TAP	104	224	3
TAP	104	240	2
TAP	104	256	1
TAP	104	272	0
TAP	104	288	7
TAP	104	304	6
TAP	104	320	5
TAP	104	336	4
TAP	104	352	3
TAP	104	368	2
BRK	105	0	6
TAP	105	16	7
TAP	105	32	0
TAP	105	48	1
TAP	105	64	2
TAP	105	80	3
TAP	105	96	4
TAP	105	112	5
TAP	105	128	6
TAP	105	144	7
TAP	105	160	0
TAP	105	176	1
TAP	105	192	2
TAP	105	208	3
TAP	105	224	4
TAP	105	240	5
TAP	105	256	6
TAP	105	272	7
TAP	105	288	0
TAP	105	304	1
TAP	105	320	2
TAP	105	336	3
TAP	105	352	4
TAP	105	368	5
BRK	106	0	2
TAP	106	16	1
TAP	106	32	0
TAP	106	48	7
TAP	106	64	6
TAP	106	80	5
TAP	106	96	4
TAP	106	112	3
TAP	106	128	2
TAP	106	144	1
TAP	106	160	0
TAP	106	176	7
TAP	106	192	6
TAP	106	208	5
TAP	106	224	4
TAP	106	240	3
TAP	106	256	2
TAP	106	272	1
TAP	106	288	0
TAP	106	304	7
TAP	106	320	6
TAP	106	336	5
TAP	106	352	4
TAP	106	368	3
BRK	107	0	7
TAP	107	12	0
TAP	107	24	1
TAP	107	36	2
TAP	107	48	3
TAP	107	60	4
TAP	107	72	5
TAP	107	84	6
TAP	107	96	7
TAP	107	108	0
TAP	107	120	1
TAP	107	132	2
TAP	107	144	3
TAP	107	156	4
TAP	107	168	5
TAP	107	180	6
TAP	107	192	7
TAP	107	204	0
TAP	107	216	1
TAP	107	228	2
TAP	107	240	3
TAP	107	252	4
TAP	107	264	5
TAP	107	276	6
TAP	107	288	7
TAP	107	300	0
TAP	107	312	1
TAP	107	324	2
TAP	107	336	3
TAP	107	348	4
TAP	107	360	5
TAP	107	372	6
HLD	108	0	3	672
HLD	108	0	7	1440
HLD	110	0	0	672
BRK	112	0	1
BRK	112	0	6

T_REC_TAP	917
T_REC_BRK	42
T_REC_XTP	0
T_REC_HLD	18
T_REC_XHO	0
T_REC_STR	72
T_REC_BST	12
T_REC_XST	0
T_REC_TTP	0
T_REC_THO	0
T_REC_SLD	89
T_REC_ALL	1150
T_NUM_TAP	989
T_NUM_BRK	54
T_NUM_HLD	18
T_NUM_SLD	89
T_NUM_ALL	1150
T_JUDGE_TAP	1043
T_JUDGE_HLD	100
T_JUDGE_SLD	89
T_JUDGE_ALL	1232
TTM_EACHPAIRS	47
TTM_SCR_TAP	494500
TTM_SCR_BRK	140400
TTM_SCR_HLD	18000
TTM_SCR_SLD	133500
TTM_SCR_ALL	786400
TTM_SCR_S	757600
TTM_SCR_SS	781000
TTM_RAT_ACV	10069

