VERSION	0.00.00	1.03.00
FES_MODE	0
BPM_DEF	225.500	225.500	225.500	225.500
MET_DEF	4	4
RESOLUTION	384
CLK_DEF	384
COMPATIBLE_CODE	MA2

BPM	0	0	225.500
MET	0	0	4	4

TAP	3	0	1
TAP	3	0	6
TAP	3	96	7
TAP	3	192	0
TAP	3	288	1
TAP	3	336	1
TAP	4	0	0
TAP	4	96	7
STR	4	192	6
SCR	4	192	6	96	72	1
TAP	5	0	2
TAP	5	96	3
TAP	5	192	4
TAP	5	288	5
TAP	5	336	5
TAP	6	0	4
TAP	6	96	3
STR	6	192	2
SCR	6	192	2	96	72	5
TAP	7	0	6
TAP	7	96	7
TAP	7	192	0
TAP	7	192	1
TAP	7	240	0
TAP	7	240	1
TAP	7	288	0
TAP	7	288	1
TAP	8	0	2
TAP	8	96	3
TAP	8	192	4
TAP	8	192	5
TAP	8	240	4
TAP	8	240	5
TAP	8	288	4
TAP	8	288	5
TAP	9	0	1
TAP	9	0	7
TAP	9	48	1
TAP	9	48	7
TAP	9	96	1
TAP	9	96	7
TAP	9	192	3
TAP	9	192	5
TAP	9	240	3
TAP	9	240	5
TAP	9	288	3
TAP	9	288	5
TAP	10	0	0
TAP	10	48	7
TAP	10	96	1
TAP	10	144	6
TAP	10	192	2
TAP	10	240	5
TAP	10	288	3
TAP	10	336	4
STR	11	0	3
SI_	11	0	3	96	96	7
STR	11	192	4
SI_	11	192	4	96	96	0
STR	12	0	1
SCL	12	0	1	96	96	6
TAP	12	192	5
TAP	12	240	4
TAP	12	288	3
TAP	12	336	2
BRK	13	0	1
BRK	13	0	6
TAP	13	96	4
TAP	13	96	5
TAP	13	192	2
TAP	13	192	3
TAP	13	288	1
TAP	13	336	0
TAP	14	0	1
TAP	14	96	0
TAP	14	96	1
TAP	14	192	2
TAP	14	192	7
TAP	14	288	3
TAP	14	288	6
TAP	15	0	4
TAP	15	0	5
TAP	15	96	2
TAP	15	96	3
TAP	15	192	4
TAP	15	192	5
TAP	15	288	6
TAP	15	336	7
TAP	16	0	6
TAP	16	96	6
TAP	16	96	7
TAP	16	192	0
TAP	16	192	5
TAP	16	288	1
TAP	16	288	4
HLD	17	0	2	384
TAP	17	0	3
TAP	17	96	3
TAP	17	192	4
TAP	17	288	5
HLD	18	0	5	384
TAP	18	96	4
TAP	18	192	3
TAP	18	288	2
TAP	19	0	1
TAP	19	96	0
TAP	19	96	2
TAP	19	192	3
TAP	19	192	7
TAP	19	288	4
TAP	19	288	6
STR	20	0	5
SLL	20	0	5	96	144	1
SLR	20	0	5	96	144	1
BRK	21	0	0
BRK	21	0	7
TAP	21	96	1
TAP	21	192	2
TAP	21	288	3
TAP	22	0	4
TAP	22	96	5
TAP	22	192	6
TAP	22	288	7
TAP	23	0	0
TAP	23	0	2
TAP	23	96	5
TAP	23	192	4
TAP	23	192	6
TAP	23	288	2
TAP	24	0	1
TAP	24	0	3
TAP	24	96	6
TAP	24	192	5
TAP	24	192	7
TAP	24	288	1
TAP	25	0	0
TAP	25	0	2
TAP	25	96	3
TAP	25	96	7
TAP	25	192	4
TAP	25	192	6
TAP	25	288	5
TAP	26	0	5
TAP	26	0	7
TAP	26	96	0
TAP	26	96	4
TAP	26	192	1
TAP	26	192	3
TAP	26	288	2
TAP	27	0	2
TAP	27	0	7
TAP	27	96	4
TAP	27	96	5
TAP	27	192	0
TAP	27	192	5
TAP	27	288	2
TAP	27	288	3
TAP	28	0	2
TAP	28	0	7
TAP	28	72	1
TAP	28	144	1
TAP	28	192	0
TAP	28	192	5
TAP	28	264	6
TAP	28	336	6
TAP	29	0	2
TAP	29	0	5
TAP	29	72	1
TAP	29	72	6
STR	29	144	0
SI_	29	144	0	96	48	4
TAP	29	144	7
BRK	29	192	0
BRK	29	192	7
TAP	30	0	6
TAP	30	48	7
TAP	30	96	5
TAP	30	192	2
TAP	30	240	3
TAP	30	288	1
STR	31	0	7
SI_	31	0	7	96	48	3
STR	31	96	1
SI_	31	96	1	96	48	4
STR	31	192	6
SI_	31	192	6	96	48	3
TAP	31	288	0
TAP	32	0	1
TAP	32	48	0
TAP	32	96	2
TAP	32	192	5
TAP	32	240	4
TAP	32	288	6
STR	33	0	0
SI_	33	0	0	96	48	4
STR	33	96	6
SI_	33	96	6	96	48	3
STR	33	192	1
SI_	33	192	1	96	48	4
TAP	33	288	7
TAP	34	0	6
TAP	34	48	0
TAP	34	96	6
TAP	34	144	0
STR	34	192	6
SCL	34	192	6	96	72	3
TAP	35	0	1
TAP	35	48	7
TAP	35	96	1
TAP	35	144	7
STR	35	192	1
SCR	35	192	1	96	72	4
HLD	36	0	6	96
HLD	36	96	0	96
HLD	36	192	2	96
TAP	36	288	4
STR	37	0	5
SCR	37	0	5	96	96	0
STR	37	96	0
SCR	37	96	0	96	96	3
BRK	37	192	3
TAP	38	0	0
TAP	38	48	0
TAP	38	96	4
TAP	38	144	4
TAP	38	192	2
TAP	38	240	2
TAP	38	288	6
TAP	38	336	6
TAP	39	0	3
TAP	39	48	3
TAP	39	96	7
TAP	39	144	7
TAP	39	192	1
TAP	39	240	1
TAP	39	288	5
TAP	39	336	5
TAP	40	0	0
TAP	40	48	4
TAP	40	96	1
TAP	40	144	5
TAP	40	192	2
TAP	40	240	6
TAP	40	288	3
TAP	40	288	7
TAP	41	0	7
TAP	41	48	3
TAP	41	96	6
TAP	41	144	2
TAP	41	192	5
TAP	41	240	1
TAP	41	288	0
TAP	41	288	4
TAP	42	0	0
TAP	42	48	7
TAP	42	96	6
TAP	42	144	5
TAP	42	192	4
TAP	42	240	3
TAP	42	288	2
TAP	43	0	7
TAP	43	48	0
TAP	43	96	1
TAP	43	144	2
TAP	43	192	3
TAP	43	240	4
TAP	43	288	5
STR	44	0	6
SI_	44	0	6	96	48	3
TAP	44	0	7
TAP	44	96	1
TAP	44	192	0
STR	44	192	1
SI_	44	192	1	96	48	4
TAP	44	288	6
TAP	45	0	0
TAP	45	0	5
TAP	45	72	2
TAP	45	72	7
TAP	45	144	3
TAP	45	144	4
BST	45	192	3
SI_	45	192	3	96	48	0
BST	45	192	4
SI_	45	192	4	96	48	7
TAP	46	0	1
TAP	46	0	6
TAP	46	96	2
TAP	46	144	3
TAP	46	192	2
TAP	46	288	6
TAP	46	336	7
STR	47	0	6
SI_	47	0	6	96	48	2
TAP	47	96	0
STR	47	192	1
SI_	47	192	1	96	48	5
TAP	47	288	7
TAP	48	0	3
TAP	48	0	6
TAP	48	96	5
TAP	48	144	4
TAP	48	192	5
TAP	48	288	1
TAP	48	336	0
STR	49	0	1
SI_	49	0	1	96	48	5
TAP	49	96	7
STR	49	192	6
SI_	49	192	6	96	48	2
TAP	49	288	0
TAP	50	0	1
TAP	50	0	4
TAP	50	96	5
TAP	50	96	7
TAP	50	192	1
TAP	50	240	0
TAP	50	288	1
TAP	51	0	3
TAP	51	0	6
TAP	51	96	0
TAP	51	96	2
TAP	51	192	6
TAP	51	240	7
TAP	51	288	6
TAP	52	0	2
TAP	52	0	3
TAP	52	96	0
TAP	52	96	6
TAP	52	192	4
TAP	52	192	5
TAP	52	288	1
TAP	52	288	7
STR	53	0	2
SCL	53	0	2	96	144	5
STR	53	0	3
SUL	53	0	3	96	144	4
BRK	54	0	1
BRK	54	0	6
TAP	54	96	0
TAP	54	144	5
TAP	54	192	3
TAP	54	288	4
TAP	54	336	1
STR	55	0	7
SI_	55	0	7	96	48	2
STR	55	96	1
SI_	55	96	1	96	48	4
STR	55	192	6
SI_	55	192	6	96	48	3
STR	55	288	0
SI_	55	288	0	96	48	5
TAP	56	0	7
TAP	56	96	6
TAP	56	144	2
TAP	56	192	4
TAP	56	288	2
TAP	56	336	6
STR	57	0	0
SI_	57	0	0	96	48	5
STR	57	96	6
SI_	57	96	6	96	48	3
STR	57	192	1
SI_	57	192	1	96	48	4
STR	57	288	7
SI_	57	288	7	96	48	2
TAP	58	0	0
TAP	58	96	0
TAP	58	96	6
TAP	58	192	7
TAP	58	240	7
BRK	58	288	0
BRK	58	288	6
TAP	59	0	4
TAP	59	96	1
TAP	59	96	7
TAP	59	192	0
TAP	59	240	0
BRK	59	288	1
BRK	59	288	7
TAP	60	0	6
TAP	60	48	6
TAP	60	96	2
TAP	60	144	2
TAP	60	192	5
TAP	60	240	5
TAP	60	288	1
TAP	60	336	1
TAP	61	0	0
TAP	61	0	4
TAP	61	72	5
TAP	61	144	6
TAP	61	192	3
TAP	61	192	7
TAP	61	264	2
TAP	61	336	1
TAP	62	0	0
TAP	62	0	4
TAP	62	72	5
TAP	62	144	6
TAP	62	192	3
TAP	62	192	7
TAP	62	264	2
TAP	62	336	1
BST	63	0	0
SXL	63	0	0	96	432	3
BST	63	0	4
SXL	63	0	4	96	432	7
TAP	64	288	3
TAP	64	288	7
BST	65	0	3
SXR	65	0	3	96	432	0
BST	65	0	7
SXR	65	0	7	96	432	4
TAP	66	288	0
TAP	66	288	4
BRK	67	0	0
BRK	67	0	4
TAP	67	96	5
TAP	67	96	6
TAP	67	192	1
TAP	67	224	0
TAP	67	256	1
TAP	67	288	0
BRK	68	0	3
BRK	68	0	7
TAP	68	96	1
TAP	68	96	2
TAP	68	192	5
TAP	68	224	4
TAP	68	256	5
TAP	68	288	4
TAP	69	0	2
TAP	69	32	4
TAP	69	64	2
TAP	69	96	4
TAP	69	192	0
TAP	69	224	6
TAP	69	256	0
STR	69	288	6
SI_	69	288	6	96	48	2
STR	70	0	7
SI_	70	0	7	96	48	3
STR	70	96	0
SI_	70	96	0	96	48	4
STR	70	192	1
SI_	70	192	1	96	48	5
HLD	71	0	6	64
HLD	71	0	7	64
HLD	71	96	6	64
HLD	71	96	7	64
HLD	71	192	6	64
HLD	71	192	7	64
TAP	71	288	6
TAP	71	288	7
HLD	72	0	0	64
HLD	72	0	1	64
HLD	72	96	0	64
HLD	72	96	1	64
HLD	72	192	0	64
HLD	72	192	1	64
TAP	72	288	0
TAP	72	288	1
HLD	73	0	5	64
HLD	73	0	7	64
HLD	73	96	5	64
HLD	73	96	7	64
HLD	73	192	5	64
HLD	73	192	7	64
TAP	73	288	5
TAP	73	288	7
HLD	74	0	0	64
HLD	74	0	2	64
HLD	74	96	0	64
HLD	74	96	2	64
HLD	74	192	0	64
HLD	74	192	2	64
TAP	74	288	0
TAP	74	288	2
BRK	75	0	6
TAP	75	32	7
TAP	75	64	6
TAP	75	96	7
TAP	75	128	6
TAP	75	160	7
TAP	75	192	6
TAP	75	224	7
TAP	75	256	6
BRK	75	288	7
BRK	76	0	1
TAP	76	32	0
TAP	76	64	1
TAP	76	96	0
TAP	76	128	1
TAP	76	160	0
TAP	76	192	1
TAP	76	224	0
TAP	76	256	1
BRK	76	288	0
TAP	77	0	7
TAP	77	48	0
TAP	77	96	1
TAP	77	144	2
TAP	77	192	3
TAP	77	240	4
TAP	77	288	5
TAP	77	336	6
TAP	78	0	7
TAP	78	24	6
TAP	78	48	5
TAP	78	72	4
TAP	78	96	3
TAP	78	120	2
TAP	78	144	1
TAP	78	168	0
TAP	78	192	7
TAP	78	216	6
TAP	78	240	5
TAP	78	264	4
TAP	78	288	3
TAP	78	312	2
TAP	78	336	1
TAP	78	360	0
BST	79	0	7
SCL	79	0	7	96	288	4
TAP	79	192	3
STR	80	0	3
SCL	80	0	3	96	288	0
TAP	80	192	7
STR	81	0	7
SCL	81	0	7	96	288	4
TAP	81	192	3
STR	82	0	3
SCL	82	0	3	96	288	0
TAP	82	192	7
STR	83	0	7
SCL	83	0	7	96	288	4
TAP	83	96	1
TAP	83	192	2
TAP	83	288	3
STR	84	0	3
SCL	84	0	3	96	288	0
TAP	84	96	5
TAP	84	192	6
TAP	84	288	7
STR	85	0	7
SCL	85	0	7	96	288	4
TAP	85	96	1
TAP	85	192	2
TAP	85	288	3
HLD	86	0	3	192
TAP	86	72	5
TAP	86	144	5
HLD	86	192	4	192
TAP	86	264	2
TAP	86	336	2
STR	87	0	3
SCL	87	0	3	96	96	0
STR	87	192	7
SCL	87	192	7	96	96	4
STR	88	0	3
SCL	88	0	3	96	192	4
BRK	89	0	1
BRK	89	0	6
TAP	89	96	3
TAP	89	96	4
TAP	89	192	5
TAP	89	240	2
TAP	89	288	5
TAP	89	336	2
TAP	90	0	6
TAP	90	48	1
TAP	90	96	6
TAP	90	144	1
TAP	90	192	7
TAP	90	240	0
TAP	90	288	7
TAP	90	336	0
TAP	91	0	1
TAP	91	0	6
TAP	91	48	1
TAP	91	48	6
TAP	91	96	1
TAP	91	96	6
TAP	91	144	1
TAP	91	144	6
TAP	91	192	2
TAP	91	192	5
TAP	91	240	2
TAP	91	240	5
TAP	91	288	2
TAP	91	288	5
TAP	91	336	2
TAP	91	336	5
TAP	92	0	3
TAP	92	0	4
TAP	92	48	3
TAP	92	48	4
TAP	92	96	3
TAP	92	96	4
STR	92	144	3
SI_	92	144	3	96	48	0
STR	92	144	4
SI_	92	144	4	96	48	7
BRK	92	192	3
BRK	92	192	4
TAP	93	0	1
TAP	93	0	6
TAP	93	96	1
TAP	93	144	0
TAP	93	192	1
TAP	93	240	7
TAP	93	288	1
TAP	94	0	2
TAP	94	0	5
TAP	94	96	5
TAP	94	144	4
TAP	94	192	5
TAP	94	240	3
TAP	94	288	5
TAP	95	0	0
TAP	95	0	1
TAP	95	48	0
TAP	95	48	1
TAP	95	96	0
TAP	95	96	1
TAP	95	192	6
TAP	95	192	7
TAP	95	240	6
TAP	95	240	7
TAP	95	288	6
TAP	95	288	7
STR	96	0	4
SUR	96	0	4	96	144	3
STR	96	0	5
SCR	96	0	5	96	144	2
BRK	97	0	1
TAP	97	48	0
TAP	97	96	2
TAP	97	144	7
TAP	97	192	1
TAP	97	240	0
TAP	97	288	2
TAP	97	336	7
TAP	98	0	1
TAP	98	48	6
TAP	98	96	0
TAP	98	96	6
TAP	98	144	1
TAP	98	192	1
TAP	98	192	7
TAP	98	240	6
TAP	98	288	0
TAP	98	288	6
TAP	99	0	5
TAP	99	48	4
TAP	99	96	6
TAP	99	144	3
TAP	99	192	5
TAP	99	240	4
TAP	99	288	6
TAP	99	336	3
TAP	100	0	5
TAP	100	48	2
TAP	100	96	2
TAP	100	96	4
TAP	100	144	5
TAP	100	192	3
TAP	100	192	5
TAP	100	240	2
TAP	100	288	2
TAP	100	288	4
TAP	101	0	6
TAP	101	48	7
TAP	101	96	5
TAP	101	144	0
TAP	101	192	6
TAP	101	240	7
TAP	101	288	0
TAP	101	288	5
TAP	102	0	2
TAP	102	48	3
TAP	102	96	1
TAP	102	144	4
TAP	102	192	2
TAP	102	240	3
TAP	102	288	1
TAP	102	288	4
TAP	103	0	0
TAP	103	0	5
TAP	103	96	2
TAP	103	96	6
TAP	103	144	2
TAP	103	144	6
TAP	103	192	3
TAP	103	192	7
TAP	103	240	3
TAP	103	240	7
TAP	103	288	2
TAP	103	288	6
TAP	103	336	2
TAP	103	336	6
STR	104	0	1
SI_	104	0	1	96	48	3
TAP	104	0	5
STR	104	96	7
SI_	104	96	7	96	48	5
STR	104	192	0
SI_	104	192	0	96	48	4
BRK	104	288	7
TAP	105	0	2
STR	105	0	6
SI_	105	0	6	96	48	4
STR	105	96	0
SI_	105	96	0	96	48	2
STR	105	192	7
SI_	105	192	7	96	48	3
BRK	105	288	0
TAP	106	0	0
TAP	106	48	7
TAP	106	96	6
TAP	106	144	5
TAP	106	192	4
TAP	106	240	3
TAP	106	288	2
TAP	106	336	1
TAP	107	0	0
TAP	107	24	1
TAP	107	48	2
TAP	107	72	3
TAP	107	96	4
TAP	107	120	5
TAP	107	144	6
TAP	107	168	7
TAP	107	192	0
TAP	107	216	1
TAP	107	240	2
TAP	107	264	3
TAP	107	288	4
TAP	107	312	5
TAP	107	336	6
TAP	107	360	7
HLD	108	0	0	672
HLD	108	0	4	672
BRK	110	0	3
BRK	110	0	4
TAP	110	48	3
TAP	110	48	4
TAP	110	96	2
TAP	110	96	5
TAP	110	144	2
TAP	110	144	5
TAP	110	192	1
TAP	110	192	6
TAP	110	240	1
TAP	110	240	6
TAP	110	288	0
TAP	110	288	7
TAP	110	336	0
TAP	110	336	7
TAP	111	0	0
TAP	111	24	7
TAP	111	48	0
TAP	111	72	7
TAP	111	96	0
TAP	111	120	7
TAP	111	144	0
TAP	111	168	7
TAP	111	192	0
TAP	111	216	7
TAP	111	240	0
TAP	111	264	7
STR	111	288	0
SI_	111	288	0	96	48	4
TAP	111	312	7
TAP	111	336	0
TAP	111	360	7

T_REC_TAP	585
T_REC_BRK	30
T_REC_XTP	0
T_REC_HLD	33
T_REC_XHO	0
T_REC_STR	57
T_REC_BST	7
T_REC_XST	0
T_REC_TTP	0
T_REC_THO	0
T_REC_SLD	65
T_REC_ALL	777
T_NUM_TAP	642
T_NUM_BRK	37
T_NUM_HLD	33
T_NUM_SLD	65
T_NUM_ALL	777
T_JUDGE_TAP	679
T_JUDGE_HLD	106
T_JUDGE_SLD	65
T_JUDGE_ALL	850
TTM_EACHPAIRS	152
TTM_SCR_TAP	321000
TTM_SCR_BRK	96200
TTM_SCR_HLD	33000
TTM_SCR_SLD	97500
TTM_SCR_ALL	547700
TTM_SCR_S	527700
TTM_SCR_SS	544000
TTM_RAT_ACV	10068

