VERSION	0.00.00	1.03.00
FES_MODE	0
BPM_DEF	225.500	225.500	225.500	225.500
MET_DEF	4	4
RESOLUTION	384
CLK_DEF	384
COMPATIBLE_CODE	MA2

BPM	0	0	225.500
MET	0	0	4	4

TAP	3	0	2
TAP	3	96	3
TAP	3	192	2
TAP	3	288	1
TAP	3	288	4
TAP	4	0	5
TAP	4	96	4
TAP	4	192	5
TAP	4	288	3
TAP	4	288	6
TAP	5	0	2
TAP	5	96	1
TAP	5	192	0
TAP	5	288	6
TAP	5	288	7
TAP	6	0	5
TAP	6	96	6
TAP	6	192	7
TAP	6	288	0
TAP	6	288	1
TAP	7	0	2
TAP	7	96	2
TAP	7	96	3
TAP	7	192	5
TAP	7	288	4
TAP	7	288	5
TAP	8	0	2
TAP	8	96	1
TAP	8	96	3
TAP	8	192	5
TAP	8	288	4
TAP	8	288	6
TAP	9	0	0
TAP	9	0	1
TAP	9	96	0
TAP	9	96	1
TAP	9	192	6
TAP	9	192	7
TAP	9	288	6
TAP	9	288	7
TAP	10	0	0
TAP	10	0	2
TAP	10	96	0
TAP	10	96	2
TAP	10	192	5
TAP	10	192	7
TAP	10	288	5
STR	10	288	7
SCL	10	288	7	96	384	0
TAP	12	192	0
TAP	12	240	0
TAP	12	288	7
TAP	12	336	7
BST	13	0	0
SUL	13	0	0	96	192	2
STR	14	0	3
SUL	14	0	3	96	192	5
STR	15	0	6
SUL	15	0	6	96	192	0
HLD	16	0	1	192
HLD	16	192	0	192
STR	17	0	7
SUR	17	0	7	96	192	5
STR	18	0	4
SUR	18	0	4	96	192	2
STR	19	0	1
SUR	19	0	1	96	192	7
HLD	20	0	6	192
HLD	20	192	7	192
TAP	21	0	0
TAP	21	96	0
TAP	21	192	0
TAP	21	288	0
TAP	22	0	7
TAP	22	96	7
TAP	22	192	7
TAP	22	288	7
TAP	23	0	6
TAP	23	96	6
TAP	23	192	5
TAP	23	288	5
TAP	24	0	4
TAP	24	96	4
TAP	24	192	3
TAP	24	288	3
TAP	25	0	2
TAP	25	96	1
TAP	25	192	0
TAP	25	288	6
TAP	25	288	7
TAP	26	0	5
TAP	26	96	6
TAP	26	192	7
TAP	26	288	0
TAP	26	288	1
TAP	27	0	2
TAP	27	96	1
TAP	27	96	3
TAP	27	192	5
TAP	27	288	4
TAP	27	288	6
TAP	28	0	2
TAP	28	96	0
TAP	28	96	2
TAP	28	192	5
TAP	28	288	5
TAP	28	288	7
TAP	29	0	0
STR	29	96	0
SI_	29	96	0	96	96	3
STR	29	96	7
SI_	29	96	7	96	96	4
TAP	30	0	2
TAP	30	96	3
TAP	30	192	4
TAP	30	288	5
TAP	31	0	6
TAP	31	48	6
TAP	31	96	0
TAP	31	192	1
TAP	31	240	1
TAP	31	288	7
TAP	32	0	2
TAP	32	96	3
TAP	32	192	4
TAP	32	288	5
TAP	33	0	6
TAP	33	0	7
TAP	33	96	0
TAP	33	96	5
TAP	33	192	1
TAP	33	192	4
TAP	33	288	2
TAP	33	288	3
TAP	34	0	4
TAP	34	96	5
TAP	34	192	6
TAP	34	288	2
TAP	34	288	7
TAP	35	0	3
TAP	35	96	2
TAP	35	192	1
TAP	35	288	0
TAP	35	288	5
TAP	36	0	6
TAP	36	48	6
TAP	36	96	0
TAP	36	192	1
TAP	36	240	1
TAP	36	288	7
TAP	37	0	0
TAP	37	0	1
TAP	37	96	2
TAP	37	96	7
TAP	37	192	3
TAP	37	192	6
TAP	37	288	4
TAP	37	288	5
TAP	38	0	3
TAP	38	0	4
TAP	38	96	2
TAP	38	96	3
TAP	38	192	3
TAP	38	192	4
TAP	38	288	1
TAP	38	288	3
TAP	39	0	3
TAP	39	0	4
TAP	39	96	4
TAP	39	96	5
TAP	39	192	3
TAP	39	192	4
TAP	39	288	4
TAP	39	288	6
TAP	40	0	3
TAP	40	0	4
TAP	40	96	1
TAP	40	96	2
TAP	40	192	3
TAP	40	192	4
TAP	40	288	0
TAP	40	288	2
TAP	41	0	3
TAP	41	0	4
TAP	41	96	5
TAP	41	96	6
TAP	41	192	3
TAP	41	192	4
TAP	41	288	5
TAP	41	288	7
TAP	42	0	0
TAP	42	96	1
TAP	42	96	7
TAP	42	192	2
TAP	42	192	6
TAP	42	288	3
TAP	42	288	5
TAP	43	0	7
TAP	43	96	0
TAP	43	96	6
TAP	43	192	1
TAP	43	192	5
TAP	43	288	2
TAP	43	288	4
HLD	44	0	1	96
HLD	44	0	3	96
HLD	44	192	4	96
HLD	44	192	6	96
TAP	45	0	0
TAP	45	0	1
TAP	45	96	6
TAP	45	96	7
TAP	45	192	3
TAP	45	192	4
BRK	45	288	1
BRK	45	288	6
TAP	46	0	2
TAP	46	96	1
TAP	46	96	3
TAP	46	192	0
TAP	46	240	0
TAP	46	288	7
TAP	47	0	5
TAP	47	96	4
TAP	47	96	6
TAP	47	192	7
TAP	47	240	7
TAP	47	288	0
TAP	48	0	2
TAP	48	96	1
TAP	48	96	3
TAP	48	192	0
TAP	48	240	0
TAP	48	288	7
TAP	49	0	4
TAP	49	0	6
TAP	49	96	3
TAP	49	96	5
TAP	49	192	2
TAP	49	192	4
TAP	49	288	1
TAP	49	288	3
TAP	50	0	0
TAP	50	96	1
TAP	50	96	7
TAP	50	192	0
TAP	50	288	2
TAP	50	288	6
TAP	51	0	7
TAP	51	96	0
TAP	51	96	6
TAP	51	192	7
TAP	51	288	1
TAP	51	288	5
TAP	52	0	2
TAP	52	48	2
TAP	52	96	3
TAP	52	192	5
TAP	52	240	5
TAP	52	288	4
TAP	53	0	3
TAP	53	0	4
STR	53	96	3
SI_	53	96	3	96	96	0
STR	53	96	4
SI_	53	96	4	96	96	7
TAP	54	0	5
TAP	54	96	4
TAP	54	96	6
TAP	54	192	7
TAP	54	240	7
TAP	54	288	0
TAP	55	0	2
TAP	55	96	1
TAP	55	96	3
TAP	55	192	0
TAP	55	240	0
TAP	55	288	7
TAP	56	0	5
TAP	56	96	4
TAP	56	96	6
TAP	56	192	7
TAP	56	240	7
TAP	56	288	0
TAP	57	0	1
TAP	57	0	3
TAP	57	96	2
TAP	57	96	4
TAP	57	192	3
TAP	57	192	5
TAP	57	288	4
TAP	57	288	6
TAP	58	0	7
TAP	58	96	0
TAP	58	96	6
TAP	58	192	7
TAP	58	288	1
TAP	58	288	5
TAP	59	0	0
TAP	59	96	1
TAP	59	96	7
TAP	59	192	0
TAP	59	288	2
TAP	59	288	6
TAP	60	0	1
TAP	60	48	1
TAP	60	96	7
TAP	60	192	6
TAP	60	240	6
TAP	60	288	0
TAP	61	0	2
TAP	61	48	2
TAP	61	96	3
TAP	61	192	5
TAP	61	240	5
TAP	61	288	4
TAP	62	0	1
TAP	62	48	1
TAP	62	96	0
TAP	62	192	6
TAP	62	240	6
TAP	62	288	7
STR	63	0	1
SUR	63	0	1	96	192	5
STR	64	0	6
SUL	64	0	6	96	192	2
STR	65	0	1
SUL	65	0	1	96	192	4
STR	66	0	6
SUR	66	0	6	96	192	3
TAP	67	0	2
TAP	67	96	2
TAP	67	96	3
TAP	67	192	2
TAP	67	288	1
TAP	67	288	4
TAP	68	0	5
TAP	68	96	4
TAP	68	96	5
TAP	68	192	5
TAP	68	288	3
TAP	68	288	6
TAP	69	0	2
TAP	69	96	1
TAP	69	96	3
TAP	69	192	5
TAP	69	288	4
TAP	69	288	6
TAP	70	0	3
TAP	70	0	4
TAP	70	96	2
TAP	70	96	5
TAP	70	192	1
TAP	70	192	6
BRK	70	288	0
BRK	70	288	7
TAP	71	0	1
TAP	71	96	2
TAP	71	96	3
TAP	71	192	3
TAP	71	192	4
TAP	71	288	4
TAP	71	288	5
TAP	72	0	6
TAP	72	96	4
TAP	72	96	5
TAP	72	192	3
TAP	72	192	4
TAP	72	288	2
TAP	72	288	3
TAP	73	0	0
TAP	73	96	1
TAP	73	96	4
TAP	73	192	2
TAP	73	192	5
TAP	73	288	3
TAP	73	288	6
TAP	74	0	7
TAP	74	96	3
TAP	74	96	6
TAP	74	192	2
TAP	74	192	5
TAP	74	288	1
TAP	74	288	4
TAP	75	0	2
TAP	75	0	3
TAP	75	96	1
TAP	75	96	4
TAP	75	192	0
TAP	75	192	5
TAP	75	288	6
TAP	75	288	7
TAP	76	0	4
TAP	76	0	5
TAP	76	96	3
TAP	76	96	6
TAP	76	192	2
TAP	76	192	7
TAP	76	288	0
TAP	76	288	1
HLD	77	0	2	192
HLD	77	192	3	192
HLD	78	0	4	192
HLD	78	192	5	192
STR	79	0	6
SXL	79	0	6	96	480	1
STR	81	0	2
SXL	81	0	2	96	480	5
TAP	83	0	6
TAP	83	0	7
TAP	83	192	0
TAP	83	192	7
TAP	84	0	0
TAP	84	0	1
TAP	84	192	1
TAP	84	192	2
TAP	85	0	2
TAP	85	0	3
TAP	85	192	3
TAP	85	192	4
TAP	86	0	4
TAP	86	0	5
TAP	86	192	5
TAP	86	192	6
TAP	87	0	6
TAP	87	0	7
HLD	87	192	0	384
HLD	88	0	7	192
BRK	88	288	0
BRK	88	288	7
TAP	89	0	2
TAP	89	0	3
TAP	89	96	2
TAP	89	96	3
TAP	89	192	3
TAP	89	192	4
TAP	89	288	3
TAP	89	288	4
TAP	90	0	4
TAP	90	0	5
TAP	90	96	4
TAP	90	96	5
TAP	90	192	3
TAP	90	192	6
TAP	90	288	3
TAP	90	288	6
TAP	91	0	2
TAP	91	0	5
TAP	91	96	2
TAP	91	96	5
TAP	91	192	1
TAP	91	192	4
TAP	91	288	1
TAP	91	288	4
TAP	92	0	2
TAP	92	0	3
TAP	92	96	3
TAP	92	96	4
TAP	92	192	4
TAP	92	192	5
BRK	92	288	1
BRK	92	288	6
TAP	93	0	0
TAP	93	0	1
TAP	93	96	2
TAP	93	96	7
TAP	93	192	6
TAP	93	240	6
TAP	93	288	4
TAP	94	0	6
TAP	94	0	7
TAP	94	96	0
TAP	94	96	5
TAP	94	192	1
TAP	94	240	1
TAP	94	288	3
TAP	95	0	2
TAP	95	48	2
TAP	95	96	7
TAP	95	192	5
TAP	95	240	5
TAP	95	288	0
TAP	96	0	7
TAP	96	48	7
TAP	96	96	1
TAP	96	144	1
TAP	96	192	6
TAP	96	240	6
TAP	96	288	0
TAP	97	0	2
TAP	97	0	4
TAP	97	48	2
TAP	97	48	4
TAP	97	96	2
TAP	97	96	4
TAP	97	192	3
TAP	97	192	5
TAP	97	240	3
TAP	97	240	5
TAP	97	288	3
TAP	97	288	5
TAP	98	0	1
TAP	98	0	4
TAP	98	48	1
TAP	98	48	4
TAP	98	96	1
TAP	98	96	4
TAP	98	192	3
TAP	98	192	6
TAP	98	240	3
TAP	98	240	6
TAP	98	288	3
TAP	98	288	6
TAP	99	0	0
TAP	99	0	5
TAP	99	48	0
TAP	99	48	5
TAP	99	96	0
TAP	99	96	5
TAP	99	192	2
TAP	99	192	7
TAP	99	240	2
TAP	99	240	7
TAP	99	288	2
TAP	99	288	7
TAP	100	0	0
TAP	100	48	0
TAP	100	96	6
TAP	100	144	6
TAP	100	192	1
TAP	100	240	1
TAP	100	288	7
TAP	101	0	2
TAP	101	48	2
TAP	101	96	6
TAP	101	144	6
TAP	101	192	0
TAP	101	240	0
TAP	101	288	7
TAP	102	0	5
TAP	102	48	5
TAP	102	96	1
TAP	102	144	1
TAP	102	192	7
TAP	102	240	7
TAP	102	288	0
TAP	103	0	1
TAP	103	0	7
TAP	103	48	1
TAP	103	48	7
TAP	103	96	1
TAP	103	96	7
TAP	103	192	0
TAP	103	192	6
TAP	103	240	0
TAP	103	240	6
TAP	103	288	0
TAP	103	288	6
TAP	104	0	5
TAP	104	48	5
TAP	104	96	3
TAP	104	144	3
TAP	104	192	7
TAP	104	240	7
TAP	104	288	0
TAP	105	0	2
TAP	105	48	2
TAP	105	96	4
TAP	105	144	4
TAP	105	192	0
TAP	105	240	0
TAP	105	288	7
TAP	106	0	4
TAP	106	0	6
TAP	106	48	4
TAP	106	48	6
TAP	106	96	4
TAP	106	96	6
TAP	106	192	1
TAP	106	192	3
TAP	106	240	1
TAP	106	240	3
TAP	106	288	1
TAP	106	288	3
TAP	107	0	5
TAP	107	0	7
TAP	107	48	5
TAP	107	48	7
TAP	107	96	5
TAP	107	96	7
TAP	107	192	0
TAP	107	192	2
TAP	107	240	0
TAP	107	240	2
TAP	107	288	0
TAP	107	288	2
BST	108	0	3
SXR	108	0	3	96	480	0
BST	108	0	4
SXL	108	0	4	96	480	7
TAP	110	0	2
TAP	110	48	2
TAP	110	96	7
TAP	110	144	7
TAP	110	192	0
TAP	110	240	0
TAP	110	288	5
TAP	110	336	5
TAP	111	0	0
TAP	111	48	1
TAP	111	96	2
TAP	111	144	3
TAP	111	192	4
TAP	111	240	5
TAP	111	288	6
TAP	111	336	7
BRK	112	0	0

T_REC_TAP	556
T_REC_BRK	9
T_REC_XTP	0
T_REC_HLD	14
T_REC_XHO	0
T_REC_STR	16
T_REC_BST	3
T_REC_XST	0
T_REC_TTP	0
T_REC_THO	0
T_REC_SLD	19
T_REC_ALL	617
T_NUM_TAP	572
T_NUM_BRK	12
T_NUM_HLD	14
T_NUM_SLD	19
T_NUM_ALL	617
T_JUDGE_TAP	584
T_JUDGE_HLD	52
T_JUDGE_SLD	19
T_JUDGE_ALL	655
TTM_EACHPAIRS	182
TTM_SCR_TAP	286000
TTM_SCR_BRK	31200
TTM_SCR_HLD	14000
TTM_SCR_SLD	28500
TTM_SCR_ALL	359700
TTM_SCR_S	347750
TTM_SCR_SS	358500
TTM_RAT_ACV	10033

