VERSION	0.00.00	1.03.00
FES_MODE	0
BPM_DEF	225.500	225.500	225.500	225.500
MET_DEF	4	4
RESOLUTION	384
CLK_DEF	384
COMPATIBLE_CODE	MA2

BPM	0	0	225.500
MET	0	0	4	4

TAP	3	0	0
TAP	3	96	0
TAP	3	192	0
TAP	4	0	7
TAP	4	96	7
TAP	4	192	7
TAP	5	0	0
TAP	5	96	0
TAP	5	192	0
TAP	6	0	7
TAP	6	96	7
TAP	6	192	7
TAP	7	0	0
TAP	7	0	1
TAP	7	96	0
TAP	7	96	1
TAP	7	192	0
TAP	7	192	1
TAP	8	0	6
TAP	8	0	7
TAP	8	96	6
TAP	8	96	7
TAP	8	192	6
TAP	8	192	7
TAP	9	0	0
TAP	9	96	0
TAP	9	192	7
TAP	9	288	7
TAP	10	0	0
TAP	10	0	7
TAP	10	96	0
TAP	10	96	7
TAP	10	192	0
TAP	10	192	7
TAP	11	0	1
TAP	11	0	6
STR	13	0	0
SI_	13	0	0	96	288	3
STR	15	0	7
SI_	15	0	7	96	288	4
STR	17	0	1
SI_	17	0	1	96	288	4
STR	19	0	6
SI_	19	0	6	96	288	3
TAP	21	0	0
TAP	21	192	0
TAP	22	0	1
TAP	22	192	1
TAP	23	0	2
TAP	23	192	2
TAP	24	0	3
TAP	24	192	3
TAP	25	0	4
TAP	25	192	4
TAP	26	0	5
TAP	26	192	5
TAP	27	0	6
TAP	27	192	6
TAP	28	0	7
TAP	28	192	7
TAP	29	0	0
BRK	29	192	0
BRK	29	192	7
TAP	30	0	7
TAP	30	96	7
TAP	30	192	6
TAP	31	0	5
TAP	31	96	5
TAP	31	192	3
TAP	31	192	4
TAP	32	0	0
TAP	32	96	0
TAP	32	192	1
TAP	33	0	2
TAP	33	96	2
TAP	33	192	3
TAP	33	192	4
TAP	34	0	4
TAP	34	96	4
TAP	34	192	5
TAP	35	0	6
TAP	35	96	6
TAP	35	192	0
TAP	35	192	7
TAP	36	0	3
TAP	36	96	3
TAP	36	192	2
TAP	37	0	1
TAP	37	96	1
TAP	37	192	0
TAP	37	192	7
TAP	38	0	1
TAP	38	96	0
TAP	38	192	1
TAP	38	288	0
TAP	39	0	1
TAP	39	96	0
TAP	39	192	1
TAP	40	0	6
TAP	40	96	7
TAP	40	192	6
TAP	40	288	7
TAP	41	0	6
TAP	41	96	7
TAP	41	192	6
TAP	42	0	0
TAP	42	96	7
TAP	42	192	0
TAP	42	288	7
TAP	43	0	1
TAP	43	96	6
TAP	43	192	1
TAP	44	0	3
TAP	44	96	4
TAP	44	192	3
TAP	44	288	4
TAP	45	0	2
TAP	45	96	5
BRK	45	192	2
TAP	46	0	4
TAP	46	96	4
TAP	46	192	4
TAP	46	288	4
TAP	47	0	5
TAP	47	96	5
TAP	47	192	4
TAP	47	192	5
TAP	48	0	6
TAP	48	96	6
TAP	48	192	6
TAP	48	288	6
TAP	49	0	7
TAP	49	96	7
TAP	49	192	0
TAP	49	192	7
TAP	50	0	0
TAP	50	96	0
TAP	50	192	0
TAP	50	288	0
TAP	51	0	1
TAP	51	96	1
TAP	51	192	0
TAP	51	192	1
TAP	52	0	2
TAP	52	96	2
TAP	52	192	2
TAP	52	288	2
TAP	53	0	3
TAP	53	96	3
BRK	53	192	3
BRK	53	192	4
TAP	54	0	3
TAP	54	96	3
TAP	54	192	3
TAP	54	288	3
TAP	55	0	2
TAP	55	96	2
TAP	55	192	2
TAP	55	192	3
TAP	56	0	1
TAP	56	96	1
TAP	56	192	1
TAP	56	288	1
TAP	57	0	0
TAP	57	96	0
TAP	57	192	0
TAP	57	192	7
TAP	58	0	7
TAP	58	96	7
TAP	58	192	7
TAP	58	288	7
TAP	59	0	6
TAP	59	96	6
TAP	59	192	6
TAP	59	192	7
TAP	60	0	5
TAP	60	96	5
TAP	60	192	5
TAP	60	288	5
TAP	61	0	4
TAP	61	96	4
TAP	61	192	3
TAP	61	192	4
HLD	62	0	2	192
HLD	62	0	5	192
STR	63	0	3
SI_	63	0	3	96	288	0
STR	63	0	4
SI_	63	0	4	96	288	7
STR	65	0	0
SI_	65	0	0	96	288	5
STR	65	0	1
SI_	65	0	1	96	288	4
STR	67	0	6
SI_	67	0	6	96	288	3
STR	67	0	7
SI_	67	0	7	96	288	2
TAP	69	0	3
TAP	69	0	4
TAP	69	192	3
TAP	69	192	4
TAP	70	0	3
TAP	70	0	4
TAP	70	96	3
TAP	70	96	4
TAP	70	192	2
TAP	70	192	5
TAP	71	0	2
TAP	71	96	2
TAP	71	192	2
TAP	72	0	2
TAP	72	96	2
TAP	72	192	2
TAP	72	192	3
TAP	73	0	5
TAP	73	96	5
TAP	73	192	5
TAP	74	0	5
TAP	74	96	5
TAP	74	192	4
TAP	74	192	5
TAP	75	0	3
TAP	75	0	4
TAP	75	96	3
TAP	75	96	4
TAP	75	192	3
TAP	75	192	4
TAP	76	0	3
TAP	76	0	4
TAP	76	96	3
TAP	76	96	4
TAP	76	192	2
TAP	76	192	5
TAP	77	0	3
TAP	77	0	4
TAP	77	192	2
TAP	77	192	5
TAP	78	0	1
TAP	78	0	6
TAP	78	192	0
TAP	78	192	7
STR	79	0	0
SCR	79	0	0	96	288	3
STR	79	0	7
SCL	79	0	7	96	288	4
TAP	83	0	0
TAP	84	0	0
TAP	85	0	7
TAP	86	0	7
TAP	87	0	0
TAP	87	0	7
HLD	88	0	1	192
HLD	88	0	6	192
TAP	89	0	0
TAP	89	0	7
TAP	89	192	0
TAP	89	192	7
TAP	90	0	1
TAP	90	0	6
TAP	90	192	1
TAP	90	192	6
TAP	91	0	2
TAP	91	0	5
TAP	91	192	2
TAP	91	192	5
TAP	92	0	3
TAP	92	0	4
BRK	92	192	3
BRK	92	192	4
TAP	93	0	3
TAP	93	96	3
TAP	93	192	4
TAP	93	288	4
TAP	94	0	5
TAP	94	96	5
TAP	94	192	4
TAP	94	192	6
TAP	95	0	4
TAP	95	96	4
TAP	95	192	3
TAP	95	288	3
TAP	96	0	2
TAP	96	96	2
TAP	96	192	1
TAP	96	192	3
TAP	97	0	0
TAP	97	96	0
TAP	97	192	1
TAP	97	288	1
TAP	98	0	2
TAP	98	96	2
TAP	98	192	3
TAP	98	240	3
TAP	98	288	3
TAP	99	0	4
TAP	99	96	4
TAP	99	192	5
TAP	99	288	5
TAP	100	0	6
TAP	100	96	6
TAP	100	192	7
TAP	100	240	7
TAP	100	288	7
TAP	101	0	6
TAP	101	96	6
TAP	101	192	7
TAP	101	288	7
TAP	102	0	0
TAP	102	96	0
TAP	102	192	1
TAP	102	240	1
TAP	102	288	1
TAP	103	0	0
TAP	103	96	0
TAP	103	192	7
TAP	103	240	7
TAP	103	288	7
TAP	104	0	6
TAP	104	96	6
TAP	104	192	5
TAP	104	240	5
TAP	104	288	5
TAP	105	0	4
TAP	105	96	4
TAP	105	192	3
TAP	105	240	3
TAP	105	288	3
TAP	106	0	2
TAP	106	96	2
TAP	106	192	1
TAP	106	240	1
TAP	106	288	1
TAP	107	0	0
TAP	107	96	0
TAP	107	192	0
TAP	107	192	7
TAP	107	240	0
TAP	107	240	7
TAP	107	288	0
TAP	107	288	7
HLD	108	0	0	576
HLD	108	0	7	576
HLD	110	0	1	768
HLD	110	0	6	768

T_REC_TAP	305
T_REC_BRK	7
T_REC_XTP	0
T_REC_HLD	8
T_REC_XHO	0
T_REC_STR	12
T_REC_BST	0
T_REC_XST	0
T_REC_TTP	0
T_REC_THO	0
T_REC_SLD	12
T_REC_ALL	344
T_NUM_TAP	317
T_NUM_BRK	7
T_NUM_HLD	8
T_NUM_SLD	12
T_NUM_ALL	344
T_JUDGE_TAP	324
T_JUDGE_HLD	72
T_JUDGE_SLD	12
T_JUDGE_ALL	408
TTM_EACHPAIRS	62
TTM_SCR_TAP	158500
TTM_SCR_BRK	18200
TTM_SCR_HLD	8000
TTM_SCR_SLD	18000
TTM_SCR_ALL	202700
TTM_SCR_S	195950
TTM_SCR_SS	202000
TTM_RAT_ACV	10034

