VERSION	0.00.00	1.03.00
FES_MODE	0
BPM_DEF	135.000	135.000	135.000	135.000
MET_DEF	4	4
RESOLUTION	384
CLK_DEF	384
COMPATIBLE_CODE	MA2

BPM	0	0	135.000
MET	0	0	4	4

TAP	1	0	1
TAP	1	0	6
TAP	1	48	0
TAP	1	72	7
TAP	1	96	2
TAP	1	120	5
TAP	1	168	0
TAP	1	192	7
TAP	1	216	1
TAP	1	240	6
TAP	1	264	2
BRK	1	288	5
TAP	2	0	2
TAP	2	48	3
TAP	2	96	0
TAP	2	96	1
TAP	2	144	2
TAP	2	144	3
TAP	2	192	5
TAP	2	240	4
TAP	2	288	6
TAP	2	288	7
TAP	2	336	4
TAP	2	336	5
TAP	3	0	1
TAP	3	48	3
TAP	3	96	0
TAP	3	96	1
TAP	3	144	2
TAP	3	144	3
TAP	3	192	6
TAP	3	240	4
TAP	3	288	6
TAP	3	288	7
TAP	3	336	4
TAP	3	336	5
TAP	4	0	0
TAP	4	48	3
TAP	4	96	0
TAP	4	96	1
TAP	4	144	2
TAP	4	144	3
TAP	4	192	7
TAP	4	240	4
TAP	4	288	6
TAP	4	288	7
TAP	4	336	4
TAP	4	336	5
TAP	5	0	1
TAP	5	0	3
TAP	5	72	4
TAP	5	72	6
TAP	5	144	2
TAP	5	144	5
BRK	5	240	0
BRK	5	240	2
BRK	5	288	5
BRK	5	288	7
BRK	5	336	1
BRK	5	336	6
TAP	6	0	2
TAP	6	24	3
TAP	6	48	2
TAP	6	96	0
TAP	6	96	7
TAP	6	144	0
TAP	6	144	7
TAP	6	192	5
TAP	6	216	4
TAP	6	240	5
TAP	6	288	0
TAP	6	288	7
TAP	6	336	0
TAP	6	336	7
TAP	7	0	2
TAP	7	24	3
TAP	7	48	2
TAP	7	96	0
TAP	7	96	1
TAP	7	144	6
TAP	7	144	7
TAP	7	192	5
TAP	7	216	4
TAP	7	240	5
TAP	7	288	6
TAP	7	288	7
TAP	7	336	0
TAP	7	336	1
TAP	8	0	2
TAP	8	24	3
TAP	8	48	2
TAP	8	96	1
TAP	8	96	7
TAP	8	144	0
TAP	8	144	6
TAP	8	192	5
TAP	8	216	4
TAP	8	240	5
TAP	8	288	0
TAP	8	288	6
TAP	8	336	1
TAP	8	336	7
STR	9	0	0
SI_	9	0	0	96	48	4
STR	9	96	4
SI_	9	96	4	96	48	0
STR	9	192	0
SI_	9	192	0	96	48	4
BRK	9	288	4
TAP	10	48	0
TAP	10	48	5
TAP	10	96	1
TAP	10	144	2
TAP	10	144	5
HLD	10	168	2	72
TAP	10	240	5
TAP	10	288	3
TAP	10	336	2
TAP	10	336	5
TAP	11	0	1
TAP	11	48	0
TAP	11	48	5
TAP	11	96	1
TAP	11	144	2
TAP	11	144	5
HLD	11	168	2	72
TAP	11	240	5
TAP	11	288	6
TAP	11	336	7
TAP	12	0	0
TAP	12	48	1
TAP	12	48	7
TAP	12	96	6
TAP	12	144	1
TAP	12	144	5
HLD	12	168	5	72
TAP	12	240	1
TAP	12	288	4
HLD	12	336	1	216
TAP	12	336	5
TAP	13	0	6
TAP	13	48	7
TAP	13	96	6
TAP	13	144	5
TAP	13	168	5
BRK	13	240	0
BRK	13	240	7
TAP	13	336	0
TAP	14	0	1
TAP	14	48	2
TAP	14	48	7
TAP	14	96	6
TAP	14	144	2
TAP	14	144	5
HLD	14	168	5	72
TAP	14	240	2
TAP	14	288	4
TAP	14	336	2
TAP	14	336	5
TAP	15	0	6
TAP	15	48	2
TAP	15	48	7
TAP	15	96	6
TAP	15	144	2
TAP	15	144	5
HLD	15	168	5	72
TAP	15	240	2
TAP	15	288	1
STR	15	336	0
SI_	15	336	0	96	48	5
STR	16	0	5
SI_	16	0	5	96	48	0
STR	16	144	4
SI_	16	144	4	96	48	1
STR	16	192	1
SI_	16	192	1	96	48	4
TAP	16	336	0
TAP	17	0	1
TAP	17	48	2
TAP	17	96	3
TAP	17	144	4
TAP	17	192	5
TAP	17	240	6
BRK	17	288	7
STR	18	0	0
SXR	18	0	0	96	96	7
STR	18	96	7
SCR	18	96	7	96	96	2
TAP	18	192	3
TAP	18	240	4
TAP	18	288	5
TAP	18	336	6
STR	19	0	7
SXL	19	0	7	96	96	0
STR	19	96	0
SCL	19	96	0	96	96	5
TAP	19	192	4
TAP	19	240	3
TAP	19	288	2
TAP	19	336	1
STR	20	0	0
SXR	20	0	0	96	96	7
STR	20	96	7
SCR	20	96	7	96	96	2
TAP	20	192	3
TAP	20	240	4
TAP	20	288	5
TAP	20	336	6
STR	21	0	7
SXL	21	0	7	96	96	0
STR	21	96	0
SCL	21	96	0	96	96	5
SCR	21	96	0	96	96	3
STR	22	0	4
SXR	22	0	4	96	96	3
STR	22	96	3
SCR	22	96	3	96	96	6
TAP	22	192	7
TAP	22	240	0
TAP	22	288	1
TAP	22	336	2
STR	23	0	3
SXL	23	0	3	96	96	4
STR	23	96	4
SCL	23	96	4	96	96	1
TAP	23	192	0
TAP	23	240	7
TAP	23	288	6
TAP	23	336	5
TAP	24	0	4
TAP	24	48	2
TAP	24	48	4
TAP	24	96	3
TAP	24	144	3
TAP	24	144	5
TAP	24	192	4
TAP	24	240	1
TAP	24	240	4
TAP	24	288	3
TAP	24	336	3
TAP	24	336	6
TAP	25	0	7
TAP	25	24	0
TAP	25	72	4
TAP	25	96	3
TAP	25	144	7
TAP	25	168	0
TAP	25	192	6
TAP	25	216	1
TAP	25	240	5
TAP	25	264	2
TAP	25	288	4
TAP	25	336	1
TAP	25	336	6
STR	26	0	0
SCL	26	0	0	96	48	4
STR	26	0	1
SXL	26	0	1	96	48	3
TAP	26	240	2
TAP	26	240	4
TAP	26	288	1
TAP	26	288	5
TAP	26	336	0
TAP	26	336	6
STR	27	0	7
SI_	27	0	7	96	48	3
STR	27	72	3
SCR	27	72	3	96	96	6
HLD	27	144	2	144
STR	28	0	6
SXR	28	0	6	96	48	4
STR	28	0	7
SCR	28	0	7	96	48	3
TAP	28	240	3
TAP	28	240	5
TAP	28	288	2
TAP	28	288	6
TAP	28	336	1
TAP	28	336	7
STR	29	0	0
SI_	29	0	0	96	48	4
STR	29	72	4
SCL	29	72	4	96	96	1
HLD	29	144	5	144
TAP	29	336	6
TAP	30	0	5
TAP	30	0	7
TAP	30	48	6
TAP	30	72	4
TAP	30	96	6
TAP	30	144	4
TAP	30	144	6
TAP	30	240	2
TAP	30	240	4
TAP	30	336	1
TAP	31	0	0
TAP	31	0	2
TAP	31	48	1
TAP	31	72	3
TAP	31	96	1
TAP	31	144	1
TAP	31	144	3
TAP	31	240	3
TAP	31	240	5
TAP	31	336	6
HLD	32	0	5	96
HLD	32	0	7	96
HLD	32	144	1	48
HLD	32	144	4	48
TAP	32	240	2
TAP	32	240	3
TAP	32	288	1
TAP	32	288	4
TAP	32	336	0
TAP	32	336	5
TAP	33	0	6
TAP	33	0	7
TAP	33	72	0
TAP	33	72	1
STR	33	144	3
SXR	33	144	3	96	48	1
STR	33	144	4
SXL	33	144	4	96	48	6
STR	34	0	4
SCL	34	0	4	96	48	0
STR	34	0	5
SXL	34	0	5	96	48	7
TAP	34	240	0
TAP	34	240	6
TAP	34	288	1
TAP	34	288	5
TAP	34	336	2
TAP	34	336	4
STR	35	0	3
SI_	35	0	3	96	48	7
STR	35	72	7
SCR	35	72	7	96	96	2
HLD	35	144	6	144
STR	36	0	2
SXR	36	0	2	96	48	0
STR	36	0	3
SCR	36	0	3	96	48	7
TAP	36	240	1
TAP	36	240	7
TAP	36	288	2
TAP	36	288	6
TAP	36	336	3
TAP	36	336	5
STR	37	0	4
SI_	37	0	4	96	48	0
STR	37	72	0
SCL	37	72	0	96	96	5
HLD	37	144	1	144
TAP	37	336	5
TAP	38	0	4
TAP	38	0	6
TAP	38	48	5
TAP	38	72	7
TAP	38	96	5
TAP	38	144	5
TAP	38	144	7
TAP	38	240	1
TAP	38	240	7
TAP	38	336	2
TAP	39	0	1
TAP	39	0	3
TAP	39	48	2
TAP	39	72	0
TAP	39	96	2
TAP	39	144	0
TAP	39	144	2
TAP	39	240	0
TAP	39	240	6
TAP	39	336	5
BRK	40	0	0
BRK	40	0	2
HLD	40	144	3	48
HLD	40	144	5	48
TAP	40	240	1
TAP	40	240	7
STR	40	288	2
SUL	40	288	2	96	48	5
STR	40	288	6
SCR	40	288	6	96	48	1
TAP	40	336	3
TAP	40	336	5
TAP	41	144	6
HLD	41	192	4	96
HLD	41	288	2	96
STR	42	0	0
SI_	42	0	0	96	48	4
STR	42	96	4
SI_	42	96	4	96	48	0
STR	42	192	0
SI_	42	192	0	96	48	3
SI_	42	192	0	96	48	5
BRK	42	288	0
HLD	43	0	4	144
HLD	43	144	3	96
HLD	43	240	2	48
HLD	43	288	3	48
HLD	43	336	4	48
HLD	44	0	5	72
STR	44	72	4
SUL	44	72	4	96	120	7
HLD	44	144	3	144
HLD	45	0	7	144
HLD	45	144	0	96
HLD	45	240	1	48
HLD	45	288	0	48
HLD	45	336	7	48
HLD	46	0	6	72
STR	46	72	7
SI_	46	72	7	96	120	3
HLD	46	144	0	144
TAP	46	336	2
TAP	46	360	3
HLD	47	0	2	72
STR	47	72	1
SLR	47	72	1	96	72	6
HLD	47	144	0	96
TAP	47	336	6
TAP	47	360	7
HLD	48	0	6	72
STR	48	72	5
SLR	48	72	5	96	72	2
HLD	48	144	4	96
TAP	48	336	2
TAP	49	0	1
TAP	49	0	3
TAP	49	96	5
TAP	49	144	4
TAP	49	144	6
TAP	49	240	1
TAP	49	288	0
TAP	49	288	2
TAP	49	336	6
TAP	50	0	5
TAP	50	0	7
TAP	50	72	0
TAP	50	72	2
HLD	50	144	1	96
HLD	50	144	6	96
BRK	50	288	0
BRK	50	288	7
HLD	51	0	2	96
TAP	51	48	3
HLD	51	96	5	96
TAP	51	144	4
HLD	51	192	2	96
TAP	51	240	3
HLD	51	288	5	96
TAP	51	336	4
TAP	52	0	2
TAP	52	24	3
TAP	52	48	2
TAP	52	96	5
TAP	52	120	4
TAP	52	168	1
TAP	52	192	3
TAP	52	240	6
TAP	52	264	4
TAP	52	312	1
TAP	52	336	3
HLD	53	0	6	96
TAP	53	48	7
HLD	53	96	1	96
TAP	53	144	0
HLD	53	192	6	96
TAP	53	240	7
HLD	53	288	1	96
TAP	53	336	0
TAP	54	0	6
TAP	54	24	7
TAP	54	48	6
TAP	54	96	1
TAP	54	120	0
TAP	54	168	5
TAP	54	192	7
TAP	54	240	2
TAP	54	264	0
TAP	54	312	5
TAP	54	336	7
HLD	55	0	2	48
HLD	55	48	3	48
HLD	55	96	4	48
HLD	55	144	5	48
HLD	55	192	6	48
HLD	55	240	7	48
HLD	55	288	0	48
HLD	55	336	1	48
HLD	56	0	3	48
HLD	56	48	5	48
HLD	56	96	7	48
HLD	56	144	1	48
HLD	56	192	3	48
BRK	56	240	5
BRK	56	288	7
BRK	56	336	1
TAP	57	0	3
TAP	57	48	3
TAP	57	48	5
TAP	57	96	4
TAP	57	144	2
TAP	57	144	4
TAP	57	192	3
TAP	57	240	3
TAP	57	240	6
TAP	57	288	4
TAP	57	336	1
TAP	57	336	4
TAP	58	0	0
TAP	58	24	7
TAP	58	72	3
TAP	58	96	4
TAP	58	144	0
TAP	58	168	7
TAP	58	192	1
TAP	58	216	6
TAP	58	240	2
TAP	58	264	5
TAP	58	288	3
TAP	58	336	0
TAP	58	336	7
STR	59	0	4
SI_	59	0	4	96	48	0
STR	59	96	0
SI_	59	96	0	96	48	4
STR	59	192	4
SI_	59	192	4	96	48	2
SI_	59	192	4	96	48	6
BRK	59	288	4
BST	60	0	0
SCL	60	0	0	96	48	4
BST	60	0	1
SXL	60	0	1	96	48	3
TAP	60	240	2
TAP	60	240	4
TAP	60	288	1
TAP	60	288	5
TAP	60	336	0
TAP	60	336	6
STR	61	0	7
SI_	61	0	7	96	48	2
STR	61	72	2
SCR	61	72	2	96	96	6
HLD	61	144	1	144
BST	62	0	6
SXR	62	0	6	96	48	4
BST	62	0	7
SCR	62	0	7	96	48	3
TAP	62	240	3
TAP	62	240	5
TAP	62	288	2
TAP	62	288	6
TAP	62	336	1
TAP	62	336	7
BST	63	0	0
SI_	63	0	0	96	48	5
BST	63	72	5
SCL	63	72	5	96	72	1
BRK	63	144	6
TAP	63	240	7
TAP	63	288	7
TAP	63	336	6
TAP	64	0	5
TAP	64	0	7
TAP	64	48	6
TAP	64	72	4
TAP	64	96	6
TAP	64	144	4
TAP	64	144	6
TAP	64	192	3
TAP	64	192	5
TAP	64	240	2
TAP	64	240	4
TAP	64	288	1
TAP	64	288	3
TAP	64	336	4
TAP	64	336	6
TAP	65	0	0
TAP	65	0	2
TAP	65	48	1
TAP	65	72	3
TAP	65	96	1
TAP	65	144	1
TAP	65	144	3
TAP	65	192	2
TAP	65	192	4
TAP	65	240	3
TAP	65	240	5
TAP	65	288	4
TAP	65	288	6
TAP	65	336	1
TAP	65	336	3
HLD	66	0	5	96
HLD	66	0	7	96
HLD	66	144	1	48
HLD	66	144	4	48
TAP	66	240	2
TAP	66	240	3
TAP	66	288	1
TAP	66	288	4
TAP	66	336	0
TAP	66	336	5
TAP	67	0	6
TAP	67	0	7
TAP	67	72	0
TAP	67	72	1
STR	67	144	3
SXR	67	144	3	96	48	2
STR	67	144	4
SXL	67	144	4	96	48	5
BST	68	0	2
SXR	68	0	2	96	48	0
BST	68	0	3
SCR	68	0	3	96	48	7
TAP	68	240	1
TAP	68	240	7
TAP	68	288	2
TAP	68	288	6
TAP	68	336	3
TAP	68	336	5
STR	69	0	4
SCL	69	0	4	96	72	0
STR	69	72	0
SF_	69	72	0	96	120	4
BST	70	0	4
SCL	70	0	4	96	48	0
BST	70	0	5
SXL	70	0	5	96	48	7
TAP	70	240	0
TAP	70	240	6
TAP	70	288	1
TAP	70	288	5
TAP	70	336	2
TAP	70	336	4
STR	71	48	3
SI_	71	48	3	96	48	6
STR	71	96	6
SCR	71	96	6	96	72	2
HLD	71	144	5	144
TAP	71	336	2
TAP	72	0	1
TAP	72	0	3
TAP	72	48	2
TAP	72	72	0
TAP	72	96	2
TAP	72	144	0
TAP	72	144	2
TAP	72	192	1
TAP	72	192	7
TAP	72	240	0
TAP	72	240	6
TAP	72	288	5
TAP	72	288	7
TAP	72	336	0
TAP	72	336	2
TAP	73	0	4
TAP	73	0	6
TAP	73	48	5
TAP	73	72	7
TAP	73	96	5
TAP	73	144	5
TAP	73	144	7
TAP	73	192	0
TAP	73	192	6
TAP	73	240	1
TAP	73	240	7
TAP	73	288	0
TAP	73	288	2
TAP	73	336	5
TAP	73	336	7
BRK	74	0	1
BRK	74	0	3
HLD	74	144	2	48
HLD	74	144	4	48
TAP	74	240	0
TAP	74	240	6
STR	74	288	1
SCL	74	288	1	96	48	6
STR	74	288	5
SUR	74	288	5	96	48	2
TAP	74	336	2
TAP	74	336	4
TAP	75	144	1
HLD	75	192	3	96
HLD	75	288	5	96
STR	76	0	7
SI_	76	0	7	96	48	3
STR	76	96	3
SI_	76	96	3	96	48	7
STR	76	192	7
SI_	76	192	7	96	48	2
SI_	76	192	7	96	48	4
BRK	76	288	7
STR	77	0	3
SI_	77	0	3	96	48	7
STR	77	96	7
SI_	77	96	7	96	48	3
STR	77	192	3
SI_	77	192	3	96	48	0
SI_	77	192	3	96	48	6
BRK	77	288	3
STR	78	0	7
SCL	78	0	7	96	48	3
STR	78	96	3
SCL	78	96	3	96	48	7
STR	78	192	7
SI_	78	192	7	96	48	2
SI_	78	192	7	96	48	4
BRK	78	288	7
STR	79	0	3
SCL	79	0	3	96	48	7
STR	79	96	7
SCL	79	96	7	96	48	3
STR	79	192	3
SI_	79	192	3	96	48	0
SI_	79	192	3	96	48	6
BRK	79	288	3

T_REC_TAP	455
T_REC_BRK	27
T_REC_XTP	0
T_REC_HLD	69
T_REC_XHO	0
T_REC_STR	71
T_REC_BST	10
T_REC_XST	0
T_REC_TTP	0
T_REC_THO	0
T_REC_SLD	88
T_REC_ALL	720
T_NUM_TAP	526
T_NUM_BRK	37
T_NUM_HLD	69
T_NUM_SLD	88
T_NUM_ALL	720
T_JUDGE_TAP	563
T_JUDGE_HLD	124
T_JUDGE_SLD	88
T_JUDGE_ALL	775
TTM_EACHPAIRS	156
TTM_SCR_TAP	263000
TTM_SCR_BRK	96200
TTM_SCR_HLD	69000
TTM_SCR_SLD	132000
TTM_SCR_ALL	560200
TTM_SCR_S	539850
TTM_SCR_SS	556500
TTM_RAT_ACV	10066

