VERSION	0.00.00	1.03.00
FES_MODE	0
BPM_DEF	135.000	135.000	135.000	135.000
MET_DEF	4	4
RESOLUTION	384
CLK_DEF	384
COMPATIBLE_CODE	MA2

BPM	0	0	135.000
MET	0	0	4	4

TAP	2	0	6
TAP	2	48	6
TAP	2	96	7
TAP	2	144	7
TAP	2	192	0
TAP	2	240	0
TAP	2	288	1
TAP	2	336	1
TAP	3	0	2
TAP	3	48	2
TAP	3	96	3
TAP	3	144	3
TAP	3	192	4
TAP	3	240	4
TAP	3	288	5
TAP	4	0	5
TAP	4	48	4
TAP	4	96	3
TAP	4	144	2
TAP	4	192	1
TAP	4	240	0
TAP	4	288	7
TAP	4	336	6
BRK	5	0	0
BRK	5	72	0
BRK	5	144	0
TAP	5	240	2
TAP	5	240	5
TAP	5	288	1
TAP	5	288	6
TAP	5	336	0
TAP	5	336	7
TAP	6	0	1
TAP	6	48	1
TAP	6	96	0
TAP	6	144	0
TAP	6	192	7
TAP	6	240	7
TAP	6	288	6
TAP	6	336	6
TAP	7	0	5
TAP	7	48	5
TAP	7	96	4
TAP	7	144	4
TAP	7	192	3
TAP	7	240	3
TAP	7	288	2
TAP	8	0	2
TAP	8	48	3
TAP	8	96	4
TAP	8	144	5
TAP	8	192	6
TAP	8	240	7
TAP	8	288	0
TAP	8	336	1
BRK	9	0	0
BRK	9	0	7
BRK	9	96	1
BRK	9	96	6
BRK	9	192	0
BRK	9	192	7
BRK	9	288	1
BRK	9	288	6
TAP	10	0	0
TAP	10	48	0
HLD	10	144	1	480
TAP	10	240	2
TAP	10	336	3
TAP	11	48	4
TAP	11	144	5
TAP	11	240	6
TAP	11	336	6
TAP	12	0	7
TAP	12	48	7
HLD	12	144	6	480
TAP	12	240	5
TAP	12	336	4
TAP	13	48	3
TAP	13	144	2
TAP	13	240	1
TAP	13	288	1
TAP	13	336	1
TAP	14	0	7
HLD	14	48	7	576
TAP	14	144	3
TAP	14	240	5
TAP	14	336	1
TAP	15	48	2
TAP	15	144	4
TAP	15	240	6
TAP	15	336	0
TAP	15	336	7
BRK	16	0	1
BRK	16	0	6
TAP	16	144	1
TAP	16	144	6
BRK	16	192	0
BRK	16	192	7
TAP	16	336	0
TAP	16	336	4
TAP	17	0	0
TAP	17	0	4
TAP	17	48	1
TAP	17	48	5
TAP	17	96	1
TAP	17	96	5
TAP	17	144	2
TAP	17	144	6
TAP	17	192	2
TAP	17	192	6
TAP	17	240	3
TAP	17	240	7
BRK	17	288	3
BRK	17	288	7
HLD	18	0	3	192
TAP	18	96	2
HLD	18	192	4	192
TAP	18	288	5
HLD	19	0	3	192
TAP	19	96	1
HLD	19	192	4	192
TAP	19	288	6
HLD	20	0	3	192
TAP	20	96	0
HLD	20	192	4	96
TAP	20	288	7
TAP	21	0	0
TAP	21	0	7
TAP	21	96	1
TAP	21	96	6
TAP	21	192	2
TAP	21	192	5
BRK	21	288	3
BRK	21	288	4
HLD	22	0	3	192
TAP	22	96	1
HLD	22	192	4	192
TAP	22	288	6
HLD	23	0	3	192
TAP	23	96	0
HLD	23	192	4	96
TAP	23	288	7
TAP	24	0	1
TAP	24	96	0
TAP	24	192	6
TAP	24	240	7
TAP	24	288	6
TAP	25	0	0
TAP	25	72	0
HLD	25	144	7	96
BRK	25	240	0
BRK	26	0	0
BRK	26	0	2
HLD	26	144	1	192
TAP	26	240	0
TAP	26	288	7
TAP	26	336	6
HLD	27	0	5	72
STR	27	72	4
SLL	27	72	4	96	120	6
BRK	28	0	5
BRK	28	0	7
HLD	28	144	6	192
TAP	28	240	7
TAP	28	288	0
TAP	28	336	1
HLD	29	0	2	72
STR	29	72	3
SLR	29	72	3	96	120	1
TAP	30	0	0
TAP	30	0	2
TAP	30	72	1
TAP	30	72	7
TAP	30	144	0
STR	30	144	6
SXR	30	144	6	96	48	4
TAP	31	0	4
TAP	31	0	6
TAP	31	72	3
TAP	31	72	5
STR	31	144	2
SXR	31	144	2	96	48	0
TAP	31	144	4
BRK	31	336	6
BRK	32	0	6
TAP	32	144	0
TAP	32	240	1
TAP	32	240	7
TAP	32	288	2
TAP	32	288	6
TAP	32	336	3
TAP	32	336	5
STR	33	0	4
SF_	33	0	4	96	192	0
BRK	34	0	0
BRK	34	0	7
HLD	34	144	1	96
HLD	34	144	6	96
TAP	34	288	0
TAP	34	288	7
TAP	34	336	2
TAP	34	336	5
TAP	35	0	3
TAP	35	0	4
TAP	35	72	1
TAP	35	72	4
TAP	35	144	3
HLD	35	144	6	144
TAP	35	288	7
BRK	36	0	3
BRK	36	0	4
HLD	36	144	2	96
HLD	36	144	5	96
TAP	36	288	3
TAP	36	288	4
TAP	36	336	1
TAP	36	336	6
TAP	37	0	0
TAP	37	0	7
TAP	37	72	4
TAP	37	72	6
HLD	37	144	1	144
TAP	37	144	3
TAP	37	288	0
TAP	38	0	2
TAP	38	0	3
TAP	38	72	4
TAP	38	72	5
STR	38	144	6
SXR	38	144	6	96	48	4
TAP	38	144	7
TAP	39	0	0
TAP	39	0	1
TAP	39	72	6
TAP	39	72	7
STR	39	144	4
SXR	39	144	4	96	48	2
TAP	39	144	5
TAP	39	336	7
TAP	40	0	0
TAP	40	144	0
TAP	40	144	4
TAP	40	240	1
TAP	40	240	5
STR	40	288	1
SCL	40	288	1	96	72	6
STR	40	288	5
SUR	40	288	5	96	72	2
TAP	41	144	7
TAP	41	192	3
TAP	41	288	1
TAP	41	288	5
STR	42	0	0
SXL	42	0	0	96	48	2
STR	42	192	7
SXR	42	192	7	96	48	5
TAP	43	0	0
HLD	43	144	1	96
TAP	43	240	0
TAP	43	288	0
TAP	43	336	0
HLD	44	0	7	72
HLD	44	72	6	72
TAP	44	144	5
TAP	44	288	2
TAP	44	288	5
TAP	45	0	7
HLD	45	144	6	96
TAP	45	240	7
TAP	45	288	7
TAP	45	336	7
HLD	46	0	0	72
HLD	46	72	1	72
TAP	46	144	2
TAP	46	288	2
TAP	46	288	5
TAP	47	0	0
TAP	47	0	1
TAP	47	72	2
TAP	47	72	7
HLD	47	144	1	96
TAP	47	240	0
TAP	48	0	6
TAP	48	0	7
TAP	48	72	0
TAP	48	72	5
HLD	48	144	6	96
TAP	48	240	7
TAP	48	336	1
TAP	48	336	6
HLD	49	0	1	96
HLD	49	0	6	96
TAP	49	192	2
TAP	49	240	5
TAP	49	288	2
TAP	50	0	0
TAP	50	0	7
TAP	50	72	0
TAP	50	72	7
BRK	50	144	1
BRK	50	144	6
TAP	50	240	0
TAP	50	288	0
STR	51	0	1
SI_	51	0	1	96	48	5
TAP	51	96	7
TAP	51	192	7
TAP	51	240	2
TAP	51	240	6
TAP	51	288	1
TAP	51	288	5
HLD	51	336	0	192
HLD	51	336	4	192
TAP	52	192	1
TAP	52	240	5
TAP	52	288	2
TAP	52	336	6
STR	53	0	3
SI_	53	0	3	96	48	7
TAP	53	96	5
TAP	53	192	5
TAP	53	240	2
TAP	53	240	6
TAP	53	288	1
TAP	53	288	5
TAP	53	336	0
TAP	53	336	4
STR	54	96	6
SI_	54	96	6	96	48	3
STR	54	192	7
SI_	54	192	7	96	48	2
HLD	54	288	5	96
TAP	55	0	1
TAP	55	96	6
TAP	55	96	7
TAP	55	144	6
TAP	55	144	7
TAP	55	240	0
TAP	55	240	5
TAP	55	288	1
TAP	55	288	4
TAP	55	336	2
TAP	55	336	3
TAP	56	0	2
TAP	56	96	0
TAP	56	96	1
TAP	56	144	0
TAP	56	144	1
TAP	56	240	2
TAP	56	240	7
TAP	56	288	3
TAP	56	288	6
TAP	56	336	4
TAP	56	336	5
STR	57	0	5
SXL	57	0	5	96	48	7
STR	57	192	1
SXL	57	192	1	96	48	3
TAP	58	0	1
TAP	58	0	6
TAP	58	72	0
TAP	58	72	7
TAP	58	144	2
TAP	58	144	5
BRK	58	240	0
BRK	58	240	7
STR	59	0	1
SI_	59	0	1	96	48	5
STR	59	96	7
SI_	59	96	7	96	48	3
STR	59	192	0
SI_	59	192	0	96	48	4
BRK	59	288	7
BRK	60	0	1
BRK	60	0	6
HLD	60	144	1	96
HLD	60	240	0	48
HLD	60	288	7	48
HLD	60	336	6	48
TAP	61	0	0
STR	61	72	0
SXL	61	72	0	96	168	3
BRK	62	0	1
BRK	62	0	6
HLD	62	144	6	96
HLD	62	240	7	48
HLD	62	288	0	48
HLD	62	336	1	48
TAP	63	0	7
STR	63	72	7
SXR	63	72	7	96	168	4
TAP	64	0	2
TAP	64	0	3
STR	64	72	0
SLL	64	72	0	96	96	4
STR	64	72	1
SV_	64	72	1	96	96	3
TAP	65	0	4
TAP	65	0	5
STR	65	72	6
SV_	65	72	6	96	96	4
STR	65	72	7
SLR	65	72	7	96	96	3
TAP	65	336	0
TAP	65	336	7
TAP	66	0	1
TAP	66	0	6
TAP	66	144	2
TAP	66	144	5
TAP	66	240	2
TAP	66	240	5
STR	66	288	0
SXL	66	288	0	96	240	3
STR	66	288	7
SXR	66	288	7	96	240	4
BRK	68	0	2
BRK	68	0	5
HLD	68	144	2	96
HLD	68	240	3	48
HLD	68	288	4	48
HLD	68	336	5	48
TAP	69	0	6
STR	69	72	6
SXL	69	72	6	96	144	1
BRK	70	0	3
BRK	70	0	4
HLD	70	144	5	96
HLD	70	240	4	48
HLD	70	288	3	48
HLD	70	336	2	96
STR	71	48	1
SXR	71	48	1	96	168	6
TAP	71	96	1
TAP	72	0	3
TAP	72	0	4
STR	72	72	1
SXL	72	72	1	96	96	2
STR	72	72	6
SXR	72	72	6	96	96	5
TAP	73	0	0
TAP	73	0	7
STR	73	72	2
SXR	73	72	2	96	96	1
STR	73	72	5
SXL	73	72	5	96	96	6
TAP	73	336	0
TAP	74	0	7
TAP	74	144	3
TAP	74	144	7
TAP	74	240	2
TAP	74	240	6
STR	74	288	2
SUL	74	288	2	96	72	5
STR	74	288	6
SCR	74	288	6	96	72	1
TAP	75	144	7
TAP	75	192	0
TAP	75	288	1
TAP	75	288	6
TAP	76	0	0
TAP	76	0	1
TAP	76	96	0
TAP	76	96	2
TAP	76	192	6
TAP	76	192	7
TAP	76	288	5
TAP	76	288	7
TAP	77	0	0
TAP	77	0	1
TAP	77	96	6
TAP	77	96	7
TAP	77	192	0
TAP	77	192	2
TAP	77	288	5
TAP	77	288	7
STR	78	0	1
SI_	78	0	1	96	48	5
TAP	78	96	0
STR	78	192	6
SI_	78	192	6	96	48	2
TAP	78	288	7
STR	79	0	1
SI_	79	0	1	96	48	5
STR	79	96	7
SI_	79	96	7	96	48	3
BST	79	192	0
SI_	79	192	0	96	48	2
SI_	79	192	0	96	48	6

T_REC_TAP	309
T_REC_BRK	43
T_REC_XTP	0
T_REC_HLD	53
T_REC_XHO	0
T_REC_STR	40
T_REC_BST	1
T_REC_XST	0
T_REC_TTP	0
T_REC_THO	0
T_REC_SLD	42
T_REC_ALL	488
T_NUM_TAP	349
T_NUM_BRK	44
T_NUM_HLD	53
T_NUM_SLD	42
T_NUM_ALL	488
T_JUDGE_TAP	393
T_JUDGE_HLD	147
T_JUDGE_SLD	42
T_JUDGE_ALL	582
TTM_EACHPAIRS	118
TTM_SCR_TAP	174500
TTM_SCR_BRK	114400
TTM_SCR_HLD	53000
TTM_SCR_SLD	63000
TTM_SCR_ALL	404900
TTM_SCR_S	388500
TTM_SCR_SS	400500
TTM_RAT_ACV	10109

