VERSION	0.00.00	1.03.00
FES_MODE	0
BPM_DEF	135.000	135.000	135.000	135.000
MET_DEF	4	4
RESOLUTION	384
CLK_DEF	384
COMPATIBLE_CODE	MA2

BPM	0	0	135.000
MET	0	0	4	4

HLD	2	0	3	192
HLD	2	192	5	192
HLD	3	0	2	192
HLD	3	192	4	192
TAP	4	0	2
TAP	4	96	3
TAP	4	192	4
STR	4	288	5
SXR	4	288	5	96	288	0
TAP	6	0	0
TAP	6	96	1
TAP	6	192	2
TAP	6	288	3
TAP	7	0	4
TAP	7	96	5
TAP	7	192	6
TAP	7	288	7
TAP	8	0	0
TAP	8	96	0
TAP	8	192	7
TAP	8	288	7
TAP	9	0	0
TAP	9	0	1
TAP	9	96	2
TAP	9	96	3
TAP	9	192	4
TAP	9	192	5
TAP	9	288	6
TAP	9	288	7
TAP	10	0	5
TAP	10	48	5
TAP	10	144	5
TAP	10	240	4
TAP	10	336	4
TAP	11	48	3
TAP	11	144	3
TAP	11	240	2
TAP	11	336	2
TAP	12	48	1
TAP	12	144	1
TAP	12	240	0
STR	12	336	0
SF_	12	336	0	96	240	4
TAP	14	0	2
TAP	14	48	2
TAP	14	144	2
TAP	14	240	3
TAP	14	336	3
TAP	15	48	4
TAP	15	144	4
TAP	15	240	4
TAP	15	240	5
TAP	15	336	3
HLD	16	0	3	144
TAP	16	144	4
HLD	16	192	4	192
TAP	17	0	3
TAP	17	96	2
TAP	17	96	5
TAP	17	192	1
TAP	17	192	6
TAP	17	288	0
TAP	17	288	7
HLD	18	0	1	192
TAP	18	192	0
TAP	18	288	2
TAP	18	288	7
HLD	19	0	3	192
TAP	19	192	4
TAP	19	288	2
TAP	19	288	5
HLD	20	0	6	192
TAP	20	192	7
TAP	20	288	0
TAP	20	288	5
TAP	21	0	1
TAP	21	96	2
TAP	21	192	3
TAP	21	288	4
TAP	22	0	5
TAP	22	96	4
TAP	22	96	5
TAP	22	192	3
TAP	22	192	6
TAP	22	288	7
TAP	23	0	2
TAP	23	96	2
TAP	23	96	3
TAP	23	192	1
TAP	23	192	4
TAP	23	288	0
HLD	24	0	7	192
HLD	24	192	0	192
TAP	25	0	7
TAP	25	96	1
TAP	25	96	6
TAP	25	192	2
TAP	25	192	5
BST	25	288	0
SI_	25	288	0	96	48	2
BST	25	288	7
SI_	25	288	7	96	48	5
TAP	26	192	3
TAP	26	288	4
TAP	27	0	5
TAP	27	96	6
TAP	27	192	0
TAP	27	192	7
BST	27	288	1
SI_	27	288	1	96	48	3
BST	27	288	6
SI_	27	288	6	96	48	4
TAP	28	192	2
TAP	28	288	1
TAP	29	0	0
TAP	29	96	7
TAP	29	192	6
TAP	29	288	2
TAP	29	288	5
TAP	30	0	1
STR	30	96	1
SXL	30	96	1	96	96	3
TAP	31	0	6
STR	31	96	6
SXR	31	96	6	96	96	4
HLD	32	0	0	192
HLD	32	192	7	192
TAP	33	0	1
TAP	33	96	0
TAP	33	96	6
TAP	33	192	1
TAP	33	192	7
BST	33	288	1
SI_	33	288	1	96	48	3
BST	33	288	7
SI_	33	288	7	96	48	5
TAP	34	192	4
TAP	34	288	3
TAP	35	0	2
TAP	35	96	1
TAP	35	192	1
TAP	35	192	7
BST	35	288	0
SI_	35	288	0	96	48	2
BST	35	288	6
SI_	35	288	6	96	48	4
TAP	36	192	3
TAP	36	288	4
TAP	37	0	5
TAP	37	96	6
TAP	37	192	0
TAP	37	192	6
TAP	37	288	1
TAP	37	288	7
TAP	38	0	6
STR	38	96	6
SXR	38	96	6	96	96	4
TAP	39	0	1
STR	39	96	1
SXL	39	96	1	96	96	3
HLD	40	0	4	192
TAP	40	192	3
TAP	40	288	2
TAP	40	288	5
TAP	41	0	6
TAP	41	96	7
TAP	41	192	0
TAP	41	288	1
TAP	42	0	2
TAP	42	0	3
TAP	42	96	0
TAP	42	96	1
TAP	42	192	6
TAP	42	192	7
TAP	42	288	4
TAP	42	288	5
HLD	43	0	2	384
HLD	44	0	3	384
HLD	45	0	4	384
HLD	46	0	5	384
TAP	47	0	4
TAP	47	96	5
HLD	47	192	6	96
TAP	48	0	3
TAP	48	96	2
HLD	48	192	1	96
HLD	49	0	0	192
HLD	49	192	7	192
TAP	50	0	0
TAP	50	96	1
TAP	50	96	6
TAP	50	192	2
TAP	50	192	5
TAP	50	288	3
TAP	50	288	4
TAP	51	0	2
TAP	51	48	2
TAP	51	144	2
TAP	51	144	3
TAP	51	240	4
TAP	51	336	5
HLD	52	48	6	144
TAP	52	192	7
TAP	52	288	0
TAP	52	288	5
TAP	53	0	5
TAP	53	48	5
TAP	53	144	4
TAP	53	144	5
TAP	53	240	3
TAP	53	336	2
TAP	54	48	1
TAP	54	96	1
TAP	54	192	0
TAP	54	192	1
TAP	54	288	0
TAP	54	288	7
HLD	55	0	6	192
TAP	55	192	5
TAP	55	288	3
TAP	55	288	4
HLD	56	0	1	192
TAP	56	192	2
TAP	56	288	3
TAP	56	288	4
TAP	57	0	6
TAP	57	96	5
TAP	57	192	4
TAP	57	288	3
TAP	58	0	2
TAP	58	96	2
TAP	58	96	3
TAP	58	192	5
TAP	58	288	4
TAP	58	288	5
TAP	59	0	0
TAP	59	0	7
TAP	59	96	1
TAP	59	96	6
TAP	59	192	2
TAP	59	192	5
STR	59	288	3
SI_	59	288	3	96	48	1
STR	59	288	4
SI_	59	288	4	96	48	6
TAP	60	192	0
TAP	60	288	7
TAP	61	0	6
TAP	61	96	5
TAP	61	192	3
TAP	61	192	4
STR	61	288	2
SI_	61	288	2	96	48	0
STR	61	288	5
SI_	61	288	5	96	48	7
TAP	62	192	7
TAP	62	288	0
STR	63	0	1
SCR	63	0	1	96	96	3
STR	63	0	6
SCL	63	0	6	96	96	4
TAP	63	288	1
TAP	63	288	6
TAP	64	0	0
TAP	64	96	1
TAP	64	192	2
TAP	64	288	0
TAP	64	288	2
TAP	65	0	7
TAP	65	96	6
TAP	65	192	5
TAP	65	288	5
TAP	65	288	7
BRK	66	0	1
BRK	66	0	6
TAP	66	192	2
TAP	66	288	2
TAP	66	288	3
TAP	67	0	5
TAP	67	96	4
TAP	67	96	5
TAP	67	192	3
STR	67	288	2
SI_	67	288	2	96	48	0
STR	67	288	4
SI_	67	288	4	96	48	6
TAP	68	192	7
STR	68	288	0
SSL	68	288	0	96	192	4
STR	69	288	3
SI_	69	288	3	96	48	1
STR	69	288	5
SI_	69	288	5	96	48	7
TAP	70	192	0
TAP	70	288	7
TAP	71	0	6
TAP	71	96	5
TAP	71	192	3
TAP	71	192	4
TAP	71	288	2
TAP	71	288	5
TAP	72	0	1
TAP	72	96	2
HLD	72	192	3	96
TAP	72	288	7
TAP	73	0	6
TAP	73	96	5
HLD	73	192	4	96
TAP	73	288	0
BRK	74	0	2
BRK	74	0	6
TAP	74	192	1
TAP	74	192	5
STR	74	288	2
SI_	74	288	2	96	96	5
STR	74	288	6
SI_	74	288	6	96	96	1
TAP	75	192	3
TAP	75	192	4
TAP	75	288	2
TAP	75	288	5
TAP	76	0	1
TAP	76	0	6
TAP	76	96	1
TAP	76	96	6
TAP	76	192	2
TAP	76	192	3
TAP	76	288	2
TAP	76	288	3
TAP	77	0	4
TAP	77	0	5
TAP	77	96	4
TAP	77	96	5
TAP	77	192	0
TAP	77	192	7
TAP	77	288	0
TAP	77	288	7
TAP	78	0	0
TAP	78	0	1
TAP	78	96	0
TAP	78	96	1
TAP	78	192	6
TAP	78	192	7
TAP	78	288	6
TAP	78	288	7
TAP	79	0	0
TAP	79	0	7
TAP	79	96	1
TAP	79	96	6
TAP	79	192	2
TAP	79	192	5
TAP	79	288	3
TAP	79	288	4

T_REC_TAP	268
T_REC_BRK	4
T_REC_XTP	0
T_REC_HLD	27
T_REC_XHO	0
T_REC_STR	19
T_REC_BST	8
T_REC_XST	0
T_REC_TTP	0
T_REC_THO	0
T_REC_SLD	27
T_REC_ALL	353
T_NUM_TAP	287
T_NUM_BRK	12
T_NUM_HLD	27
T_NUM_SLD	27
T_NUM_ALL	353
T_JUDGE_TAP	299
T_JUDGE_HLD	114
T_JUDGE_SLD	27
T_JUDGE_ALL	440
TTM_EACHPAIRS	83
TTM_SCR_TAP	143500
TTM_SCR_BRK	31200
TTM_SCR_HLD	27000
TTM_SCR_SLD	40500
TTM_SCR_ALL	242200
TTM_SCR_S	233800
TTM_SCR_SS	241000
TTM_RAT_ACV	10049

