VERSION	0.00.00	1.03.00
FES_MODE	0
BPM_DEF	135.000	135.000	135.000	135.000
MET_DEF	4	4
RESOLUTION	384
CLK_DEF	384
COMPATIBLE_CODE	MA2

BPM	0	0	135.000
MET	0	0	4	4

TAP	2	0	7
TAP	2	96	7
TAP	2	192	7
TAP	3	0	7
TAP	3	192	7
TAP	4	0	0
TAP	4	96	0
TAP	4	192	0
TAP	5	0	0
TAP	5	192	0
TAP	6	0	7
TAP	6	96	7
TAP	6	192	6
TAP	7	0	7
TAP	7	192	7
TAP	8	0	0
TAP	8	96	0
TAP	8	192	1
TAP	9	0	0
BRK	9	192	0
TAP	10	0	7
TAP	10	192	7
TAP	11	0	6
TAP	11	0	7
TAP	11	192	6
TAP	11	192	7
TAP	12	0	5
TAP	12	192	5
TAP	13	0	4
TAP	13	0	5
TAP	13	192	4
TAP	13	192	5
TAP	14	0	3
TAP	14	192	3
TAP	15	0	2
TAP	15	0	3
TAP	15	192	2
TAP	15	192	3
TAP	16	0	1
TAP	16	192	1
TAP	17	0	0
TAP	17	0	1
STR	18	0	0
SI_	18	0	0	96	192	4
TAP	19	192	7
STR	20	0	7
SI_	20	0	7	96	192	3
TAP	21	192	0
STR	22	0	0
SI_	22	0	0	96	192	4
TAP	23	192	7
STR	24	0	7
SI_	24	0	7	96	192	3
TAP	26	0	0
TAP	26	96	0
TAP	26	192	0
TAP	27	0	7
TAP	27	96	7
TAP	27	192	7
TAP	28	0	6
TAP	28	96	6
TAP	28	192	6
TAP	29	0	5
TAP	29	96	5
TAP	29	192	5
TAP	30	0	4
TAP	30	96	4
TAP	30	192	4
TAP	31	0	3
TAP	31	96	3
TAP	31	192	3
TAP	32	0	2
TAP	32	96	2
TAP	32	192	2
TAP	33	0	1
TAP	33	192	1
TAP	34	0	0
TAP	34	96	0
TAP	34	192	0
TAP	35	0	1
TAP	35	96	1
TAP	35	192	1
TAP	36	0	2
TAP	36	96	2
TAP	36	192	2
TAP	37	0	3
TAP	37	96	3
TAP	37	192	3
TAP	38	0	4
TAP	38	96	4
TAP	38	192	4
TAP	39	0	5
TAP	39	96	5
TAP	39	192	5
TAP	40	0	6
TAP	40	96	6
TAP	40	192	6
TAP	41	0	7
TAP	41	192	0
TAP	42	0	0
TAP	42	0	7
TAP	42	192	0
TAP	42	192	7
HLD	43	0	0	192
HLD	44	0	1	192
HLD	45	0	7	192
HLD	46	0	6	192
HLD	47	0	5	192
HLD	48	0	4	192
HLD	49	0	3	192
HLD	50	0	2	192
STR	51	0	1
SI_	51	0	1	96	192	4
TAP	52	192	6
STR	53	0	6
SI_	53	0	6	96	192	3
TAP	54	192	1
TAP	55	0	0
TAP	55	192	0
TAP	56	0	7
TAP	56	192	7
TAP	57	0	6
TAP	57	0	7
TAP	57	192	6
TAP	57	192	7
TAP	58	0	0
TAP	58	0	1
TAP	58	192	0
TAP	58	192	1
TAP	59	0	0
TAP	59	96	7
TAP	59	192	0
TAP	59	288	7
BRK	60	0	0
TAP	60	96	0
TAP	60	192	0
TAP	61	0	0
TAP	61	0	1
TAP	61	96	0
TAP	61	96	1
TAP	61	192	0
TAP	61	192	1
TAP	62	0	7
TAP	62	96	7
TAP	62	192	7
TAP	63	0	6
TAP	63	0	7
TAP	63	96	6
TAP	63	96	7
TAP	63	192	6
TAP	63	192	7
TAP	64	0	5
TAP	64	96	5
TAP	64	192	5
TAP	65	0	4
TAP	65	96	4
TAP	65	192	4
TAP	66	0	3
TAP	66	96	3
TAP	66	192	3
TAP	67	0	2
TAP	67	96	2
TAP	67	192	2
TAP	68	0	0
TAP	68	0	1
TAP	68	192	0
TAP	68	192	1
TAP	69	0	7
TAP	69	96	7
TAP	69	192	7
TAP	70	0	6
TAP	70	0	7
TAP	70	96	6
TAP	70	96	7
TAP	70	192	6
TAP	70	192	7
TAP	71	0	0
TAP	71	96	0
TAP	71	192	0
TAP	72	0	1
TAP	72	96	1
TAP	72	192	1
TAP	73	0	2
TAP	73	96	2
TAP	73	192	2
TAP	74	0	3
TAP	74	96	3
TAP	74	192	3
TAP	75	0	4
TAP	75	96	4
TAP	75	192	4
TAP	76	0	3
TAP	76	0	4
TAP	76	192	3
TAP	76	192	4
TAP	77	0	3
TAP	77	0	4
TAP	77	192	3
TAP	77	192	4
TAP	78	0	3
TAP	78	96	3
TAP	78	192	4
TAP	78	288	4
TAP	79	0	3
TAP	79	96	3
TAP	79	192	4
BRK	79	288	4

T_REC_TAP	184
T_REC_BRK	3
T_REC_XTP	0
T_REC_HLD	8
T_REC_XHO	0
T_REC_STR	6
T_REC_BST	0
T_REC_XST	0
T_REC_TTP	0
T_REC_THO	0
T_REC_SLD	6
T_REC_ALL	207
T_NUM_TAP	190
T_NUM_BRK	3
T_NUM_HLD	8
T_NUM_SLD	6
T_NUM_ALL	207
T_JUDGE_TAP	193
T_JUDGE_HLD	32
T_JUDGE_SLD	6
T_JUDGE_ALL	231
TTM_EACHPAIRS	28
TTM_SCR_TAP	95000
TTM_SCR_BRK	7800
TTM_SCR_HLD	8000
TTM_SCR_SLD	9000
TTM_SCR_ALL	119800
TTM_SCR_S	115950
TTM_SCR_SS	119500
TTM_RAT_ACV	10025

