VERSION	0.00.00	1.03.00
FES_MODE	0
BPM_DEF	155.000	155.000	155.000	155.000
MET_DEF	4	4
RESOLUTION	384
CLK_DEF	384
COMPATIBLE_CODE	MA2

BPM	0	0	155.000
MET	0	0	4	4

TAP	2	0	1
TAP	2	0	3
TAP	2	48	2
TAP	2	48	4
TAP	2	96	5
TAP	2	120	3
TAP	2	168	4
TAP	2	168	6
TAP	2	216	3
TAP	2	216	5
TAP	2	264	2
TAP	2	288	4
TAP	2	336	3
TAP	3	0	1
TAP	3	0	4
TAP	3	48	2
TAP	3	48	5
TAP	3	96	6
TAP	3	120	4
TAP	3	168	3
TAP	3	168	5
TAP	3	216	2
TAP	3	216	4
TAP	3	264	5
TAP	3	288	3
TAP	3	336	2
TAP	4	0	4
TAP	4	0	6
TAP	4	48	3
TAP	4	48	5
TAP	4	96	2
TAP	4	120	4
TAP	4	168	1
TAP	4	168	3
TAP	4	216	2
TAP	4	216	4
TAP	4	264	5
TAP	4	288	3
TAP	4	336	4
TAP	5	0	3
TAP	5	0	6
TAP	5	48	2
TAP	5	48	5
TAP	5	96	1
TAP	5	120	3
TAP	5	168	2
TAP	5	168	4
TAP	5	216	3
TAP	5	216	5
TAP	5	264	2
TAP	5	288	4
TAP	5	336	5
TAP	6	0	2
TAP	6	0	4
TAP	6	48	3
TAP	6	48	5
TAP	6	96	1
TAP	6	120	4
TAP	6	168	3
TAP	6	168	5
TAP	6	216	2
TAP	6	216	4
TAP	6	264	6
TAP	6	288	3
TAP	6	336	1
TAP	6	336	4
TAP	7	0	3
TAP	7	0	5
TAP	7	48	2
TAP	7	48	4
TAP	7	96	6
TAP	7	120	3
TAP	7	168	2
TAP	7	168	5
TAP	7	216	1
TAP	7	216	4
TAP	7	264	1
TAP	7	288	3
TAP	7	336	4
TAP	8	0	3
TAP	8	0	5
TAP	8	48	2
TAP	8	48	4
TAP	8	96	6
TAP	8	120	3
TAP	8	168	2
TAP	8	168	4
TAP	8	216	3
TAP	8	216	5
TAP	8	264	1
TAP	8	288	4
TAP	8	336	3
TAP	8	336	6
TAP	9	0	2
TAP	9	0	4
TAP	9	48	3
TAP	9	48	5
TAP	9	96	1
TAP	9	120	4
TAP	9	168	2
TAP	9	168	5
TAP	9	216	3
TAP	9	216	6
TAP	9	264	6
TAP	9	288	4
TAP	9	336	3
TAP	10	0	2
BRK	10	0	7
TAP	10	48	1
TAP	10	48	6
TAP	10	96	0
TAP	10	96	5
TAP	10	168	0
TAP	10	192	5
TAP	10	216	1
TAP	10	240	6
TAP	10	264	2
TAP	10	288	7
TAP	10	336	3
TAP	11	0	2
TAP	11	0	7
TAP	11	48	1
TAP	11	48	6
TAP	11	96	0
TAP	11	96	5
BRK	11	192	1
TAP	11	192	3
BRK	11	264	4
TAP	11	264	6
BRK	11	336	0
TAP	11	336	5
TAP	12	48	1
TAP	12	48	6
TAP	12	96	2
TAP	12	96	7
TAP	12	168	7
TAP	12	192	2
TAP	12	216	6
TAP	12	240	1
TAP	12	264	5
TAP	12	288	0
TAP	12	336	4
TAP	13	0	0
TAP	13	0	5
TAP	13	48	1
TAP	13	48	6
TAP	13	96	2
TAP	13	96	7
BRK	13	192	5
TAP	13	192	7
BRK	13	264	0
TAP	13	264	2
TAP	13	336	1
BRK	13	336	4
TAP	14	48	2
TAP	14	48	5
TAP	14	96	3
TAP	14	96	6
TAP	14	168	3
TAP	14	192	6
TAP	14	216	2
TAP	14	240	5
TAP	14	264	1
TAP	14	288	4
TAP	14	336	0
TAP	15	0	1
TAP	15	0	4
TAP	15	48	2
TAP	15	48	5
TAP	15	96	3
TAP	15	96	6
TAP	15	192	0
BRK	15	192	2
TAP	15	264	5
BRK	15	264	7
BRK	15	336	3
TAP	15	336	6
TAP	16	48	2
TAP	16	48	5
TAP	16	96	1
TAP	16	96	4
TAP	16	168	4
TAP	16	192	1
TAP	16	216	5
TAP	16	240	2
TAP	16	264	6
TAP	16	288	3
TAP	16	336	7
TAP	17	0	3
TAP	17	0	6
TAP	17	48	2
TAP	17	48	5
TAP	17	96	1
TAP	17	96	4
STR	17	192	1
SI_	17	192	1	96	24	4
STR	17	192	5
SI_	17	192	5	96	24	0
BRK	17	264	1
BRK	17	264	5
TAP	18	0	6
TAP	18	0	7
TAP	18	96	4
TAP	18	120	5
TAP	18	144	3
TAP	18	168	4
TAP	18	192	2
TAP	18	216	3
TAP	18	240	2
TAP	18	288	3
TAP	18	288	4
TAP	18	360	0
TAP	18	360	1
TAP	19	48	3
TAP	19	72	2
TAP	19	96	4
TAP	19	120	1
TAP	19	144	3
TAP	19	168	2
TAP	19	192	4
TAP	19	216	3
TAP	19	240	4
TAP	19	264	3
TAP	19	288	5
TAP	19	312	4
TAP	19	336	5
TAP	19	360	4
TAP	20	48	6
TAP	20	48	7
TAP	20	96	5
TAP	20	120	4
TAP	20	144	3
TAP	20	192	1
TAP	20	192	2
TAP	20	264	4
TAP	20	264	5
TAP	20	336	3
TAP	21	0	2
TAP	21	24	3
TAP	21	48	4
TAP	21	96	5
TAP	21	96	6
TAP	21	168	2
TAP	21	168	3
TAP	21	276	4
BRK	21	288	4
TAP	22	0	2
TAP	22	0	3
TAP	22	72	4
TAP	22	96	3
TAP	22	144	5
TAP	22	192	4
TAP	22	192	5
TAP	22	264	3
TAP	22	288	4
TAP	22	336	2
TAP	23	0	2
TAP	23	0	3
TAP	23	72	4
TAP	23	96	3
TAP	23	144	5
TAP	23	192	4
TAP	23	192	5
TAP	23	264	3
TAP	23	288	4
TAP	23	336	2
TAP	24	0	2
TAP	24	0	4
TAP	24	72	5
TAP	24	96	3
TAP	24	144	4
TAP	24	144	6
TAP	24	192	3
TAP	24	192	5
TAP	24	264	2
TAP	24	288	4
TAP	24	336	1
TAP	24	336	3
TAP	25	0	2
TAP	25	0	4
TAP	25	72	5
TAP	25	96	3
TAP	25	144	4
TAP	25	144	6
TAP	25	192	3
TAP	25	192	5
TAP	25	264	2
TAP	25	288	4
TAP	25	336	1
TAP	25	336	3
TAP	26	0	1
TAP	26	0	4
TAP	26	72	5
TAP	26	96	2
TAP	26	144	4
TAP	26	144	7
TAP	26	192	3
TAP	26	192	6
TAP	26	264	2
TAP	26	288	5
TAP	26	336	0
TAP	26	336	3
TAP	27	0	1
TAP	27	0	4
TAP	27	72	5
TAP	27	96	2
TAP	27	144	4
TAP	27	144	7
TAP	27	192	3
TAP	27	192	6
TAP	27	264	2
TAP	27	288	5
TAP	27	336	0
TAP	27	336	3
TAP	28	0	1
TAP	28	0	5
TAP	28	72	6
TAP	28	96	2
TAP	28	144	0
TAP	28	144	4
TAP	28	192	2
TAP	28	192	6
TAP	28	264	1
TAP	28	288	5
TAP	28	336	3
TAP	28	336	7
TAP	29	0	1
TAP	29	0	5
TAP	29	72	6
TAP	29	96	2
TAP	29	144	0
TAP	29	144	4
TAP	29	192	2
TAP	29	192	6
TAP	29	264	1
TAP	29	288	5
TAP	29	336	3
TAP	29	336	7
STR	30	0	0
SCR	30	0	0	96	48	3
TAP	30	72	6
TAP	30	96	6
TAP	30	144	7
STR	30	192	0
SCL	30	192	0	96	48	5
TAP	30	264	2
TAP	30	288	2
TAP	30	336	1
STR	31	0	0
SUR	31	0	0	96	48	4
TAP	31	72	6
TAP	31	96	6
TAP	31	144	7
STR	31	192	0
SUL	31	192	0	96	48	4
TAP	31	264	1
TAP	31	288	1
TAP	31	336	7
STR	32	0	7
SCR	32	0	7	96	48	2
TAP	32	72	5
TAP	32	96	5
TAP	32	144	6
STR	32	192	7
SCL	32	192	7	96	48	4
TAP	32	264	1
TAP	32	288	1
TAP	32	336	0
STR	33	0	7
SUR	33	0	7	96	48	3
TAP	33	72	5
TAP	33	96	5
TAP	33	144	6
STR	33	192	7
SUL	33	192	7	96	48	3
TAP	33	264	2
TAP	33	288	2
TAP	33	336	1
STR	34	0	0
SUR	34	0	0	96	48	4
TAP	34	72	6
TAP	34	96	6
TAP	34	144	7
STR	34	192	0
SUL	34	192	0	96	48	4
TAP	34	264	2
TAP	34	288	2
TAP	34	336	1
STR	35	0	0
SUR	35	0	0	96	48	5
TAP	35	72	6
TAP	35	96	6
TAP	35	144	7
STR	35	192	0
SUL	35	192	0	96	48	3
TAP	35	264	1
TAP	35	288	1
TAP	35	336	7
STR	36	0	7
SUR	36	0	7	96	48	3
TAP	36	72	5
TAP	36	96	5
TAP	36	144	6
STR	36	192	7
SUL	36	192	7	96	48	3
TAP	36	264	1
TAP	36	288	1
TAP	36	336	0
TAP	37	0	7
TAP	37	96	0
TAP	37	96	4
TAP	37	144	1
TAP	37	144	5
TAP	37	192	2
TAP	37	192	6
TAP	37	240	3
TAP	37	240	7
TAP	37	288	2
TAP	37	288	6
STR	37	336	1
SXL	37	336	1	96	96	3
STR	37	336	5
SXL	37	336	5	96	96	7
TAP	38	240	0
TAP	38	240	4
TAP	38	288	3
TAP	38	288	7
STR	38	336	2
SXR	38	336	2	96	96	1
STR	38	336	6
SXR	38	336	6	96	96	5
HLD	39	240	2	48
HLD	39	240	6	48
HLD	39	312	3	48
HLD	39	312	7	48
STR	40	0	0
SLL	40	0	0	96	96	4
STR	40	0	4
SLL	40	0	4	96	96	0
TAP	40	240	0
TAP	40	240	4
STR	40	336	1
SXL	40	336	1	96	192	4
STR	40	336	5
SXL	40	336	5	96	192	0
STR	41	336	1
SLR	41	336	1	96	96	5
STR	41	336	7
SLR	41	336	7	96	96	5
TAP	42	240	2
TAP	42	240	4
TAP	42	288	1
TAP	42	288	5
STR	42	336	0
SLL	42	336	0	96	96	2
STR	42	336	6
SLL	42	336	6	96	96	2
TAP	43	240	3
TAP	43	240	5
TAP	43	288	2
TAP	43	288	6
STR	43	336	1
SLR	43	336	1	96	96	6
STR	43	336	7
SLL	43	336	7	96	96	2
STR	44	240	1
SV_	44	240	1	96	48	3
STR	44	336	7
SV_	44	336	7	96	48	5
STR	45	48	0
SLR	45	48	0	96	96	5
STR	45	96	0
SLL	45	96	0	96	96	3
STR	45	336	0
SI_	45	336	0	96	96	3
STR	45	336	4
SI_	45	336	4	96	96	7
TAP	46	240	1
TAP	46	240	5
TAP	46	288	0
TAP	46	288	4
STR	46	336	3
SUR	46	336	3	96	96	0
STR	46	336	7
SUR	46	336	7	96	96	4
HLD	47	240	2	48
HLD	47	240	6	48
HLD	47	312	3	48
HLD	47	312	7	48
STR	48	0	0
SLL	48	0	0	96	96	3
STR	48	0	4
SLL	48	0	4	96	96	7
STR	48	240	3
SLR	48	240	3	96	96	7
STR	48	240	7
SLR	48	240	7	96	96	3
STR	48	336	3
SV_	48	336	3	96	96	1
STR	48	336	7
SV_	48	336	7	96	96	5
TAP	49	288	2
TAP	49	288	7
STR	49	336	0
SUL	49	336	0	96	96	3
STR	49	336	3
SUL	49	336	3	96	96	6
TAP	50	240	1
TAP	50	240	6
TAP	50	288	0
TAP	50	288	5
STR	50	336	4
SUR	50	336	4	96	96	1
STR	50	336	7
SUR	50	336	7	96	96	4
TAP	51	240	0
TAP	51	240	3
TAP	51	288	2
TAP	51	288	7
STR	51	336	1
SXL	51	336	1	96	96	1
STR	51	336	6
SXR	51	336	6	96	96	6
STR	52	48	1
SCL	52	48	1	96	240	4
STR	52	48	6
SCR	52	48	6	96	240	3
TAP	53	240	4
TAP	53	288	2
BRK	53	336	6
STR	54	0	0
SI_	54	0	0	96	48	4
TAP	54	48	0
TAP	54	72	0
STR	54	96	6
SI_	54	96	6	96	48	2
TAP	54	144	6
TAP	54	168	6
STR	54	192	1
SI_	54	192	1	96	48	4
TAP	54	240	1
TAP	54	264	1
STR	54	288	7
SI_	54	288	7	96	48	3
TAP	54	336	7
TAP	54	360	7
STR	55	0	1
SI_	55	0	1	96	48	5
TAP	55	48	1
TAP	55	72	1
STR	55	96	6
SI_	55	96	6	96	48	3
TAP	55	144	6
TAP	55	168	6
STR	55	192	0
SF_	55	192	0	96	48	4
TAP	55	240	0
TAP	55	264	0
TAP	56	48	4
TAP	56	48	5
TAP	56	96	2
TAP	56	120	3
TAP	56	144	2
TAP	56	192	3
TAP	56	192	4
TAP	56	240	5
TAP	56	264	4
TAP	56	288	5
HLD	56	336	1	96
TAP	56	336	4
TAP	57	48	3
TAP	57	96	5
TAP	57	120	4
TAP	57	144	5
TAP	57	192	3
TAP	57	192	4
TAP	57	240	2
TAP	57	264	3
TAP	57	288	2
TAP	57	336	3
HLD	57	336	6	96
TAP	58	48	7
TAP	58	96	1
TAP	58	120	0
TAP	58	144	1
TAP	58	192	0
TAP	58	192	7
TAP	58	240	6
TAP	58	264	7
TAP	58	288	6
HLD	58	336	2	96
TAP	58	336	7
TAP	59	48	0
TAP	59	96	6
TAP	59	120	7
TAP	59	144	6
TAP	59	192	0
TAP	59	192	7
TAP	59	240	1
TAP	59	264	0
TAP	59	288	1
HLD	59	336	0	96
TAP	59	336	5
TAP	60	48	2
TAP	60	96	2
TAP	60	120	3
TAP	60	144	4
TAP	60	192	5
TAP	60	240	5
TAP	60	264	4
TAP	60	288	3
TAP	60	336	2
HLD	60	336	7	96
TAP	61	48	5
TAP	61	96	5
TAP	61	120	4
TAP	61	144	3
TAP	61	192	2
TAP	61	240	2
TAP	61	264	3
TAP	61	288	4
HLD	61	336	3	96
TAP	61	336	6
TAP	62	48	1
TAP	62	96	1
TAP	62	120	0
TAP	62	144	7
TAP	62	192	6
TAP	62	240	6
TAP	62	264	7
TAP	62	288	0
TAP	62	336	1
HLD	62	336	4	96
TAP	63	48	6
TAP	63	96	6
TAP	63	120	7
TAP	63	144	0
TAP	63	192	1
TAP	63	240	1
TAP	63	264	0
TAP	63	288	7
TAP	63	336	0
TAP	63	336	6
TAP	64	48	1
TAP	64	48	7
TAP	64	96	5
TAP	64	120	3
TAP	64	144	5
TAP	64	192	0
TAP	64	192	1
TAP	64	240	0
TAP	64	240	7
TAP	64	288	6
TAP	64	288	7
TAP	64	336	2
TAP	64	360	4
TAP	65	0	2
TAP	65	48	1
TAP	65	48	6
TAP	65	96	4
TAP	65	120	3
TAP	65	144	4
BST	65	192	2
SI_	65	192	2	96	24	6
BST	65	264	5
SI_	65	264	5	96	24	1
BST	65	336	3
SF_	65	336	3	96	432	7
HLD	67	192	1	48
HLD	67	192	3	48
HLD	67	264	4	48
HLD	67	264	6	48
STR	67	336	0
SCL	67	336	0	96	96	3
STR	67	336	2
SUL	67	336	2	96	96	1
TAP	68	192	0
TAP	68	192	2
TAP	68	240	1
TAP	68	240	7
HLD	68	288	0	48
HLD	68	288	6	48
STR	68	360	5
SUR	68	360	5	96	72	6
STR	68	360	7
SCR	68	360	7	96	72	4
HLD	69	192	0	48
HLD	69	192	2	48
HLD	69	264	4	48
HLD	69	264	6	48
STR	69	336	1
SXL	69	336	1	96	240	4
STR	69	336	3
SXL	69	336	3	96	240	6
BRK	71	0	5
TAP	71	48	3
TAP	71	72	3
TAP	71	96	4
TAP	71	120	2
TAP	71	144	6
TAP	71	168	4
TAP	71	192	6
TAP	71	216	1
TAP	71	240	3
TAP	71	264	1
TAP	71	288	5
TAP	71	312	2
TAP	71	336	4
TAP	71	360	3
TAP	72	0	2
TAP	72	0	4
TAP	72	48	3
TAP	72	48	5
TAP	72	96	1
TAP	72	120	4
TAP	72	168	3
TAP	72	168	5
TAP	72	216	2
TAP	72	216	4
TAP	72	264	6
TAP	72	288	3
TAP	72	336	1
TAP	72	336	4
TAP	73	0	3
TAP	73	0	5
TAP	73	48	2
TAP	73	48	4
TAP	73	96	6
TAP	73	120	3
TAP	73	168	2
TAP	73	168	4
TAP	73	216	1
TAP	73	216	3
TAP	73	264	1
TAP	73	288	3
TAP	73	336	4
TAP	73	336	6
TAP	74	0	3
TAP	74	0	5
TAP	74	48	2
TAP	74	48	4
TAP	74	96	6
TAP	74	120	3
TAP	74	168	2
TAP	74	168	4
TAP	74	216	3
TAP	74	216	5
TAP	74	264	1
TAP	74	288	4
TAP	74	336	3
TAP	74	336	6
TAP	75	0	2
TAP	75	0	4
TAP	75	48	3
TAP	75	48	5
TAP	75	96	1
TAP	75	120	4
TAP	75	168	3
TAP	75	168	5
TAP	75	216	4
TAP	75	216	6
TAP	75	264	6
TAP	75	288	4
TAP	75	336	1
TAP	75	336	3
TAP	76	0	2
BRK	76	0	7
TAP	76	48	1
TAP	76	48	6
TAP	76	96	0
TAP	76	96	5
TAP	76	168	1
TAP	76	192	6
TAP	76	216	0
TAP	76	240	5
TAP	76	264	2
TAP	76	288	7
TAP	76	336	0
TAP	76	336	3
TAP	77	0	1
TAP	77	0	6
TAP	77	48	2
TAP	77	48	7
TAP	77	96	0
TAP	77	96	5
BST	77	192	3
SV_	77	192	3	96	24	6
BRK	77	192	4
BRK	77	264	2
BST	77	264	3
SV_	77	264	3	96	24	0
BRK	77	336	3
TAP	78	48	1
TAP	78	48	6
TAP	78	96	2
TAP	78	96	7
TAP	78	168	6
TAP	78	192	1
TAP	78	216	7
TAP	78	240	2
TAP	78	264	5
TAP	78	288	0
TAP	78	336	4
TAP	79	0	1
TAP	79	0	6
TAP	79	48	0
TAP	79	48	5
TAP	79	96	2
TAP	79	96	7
BRK	79	192	3
BST	79	192	4
SXR	79	192	4	96	24	2
BST	79	264	4
SXL	79	264	4	96	24	6
BRK	79	264	5
BRK	79	336	4
TAP	80	48	2
TAP	80	48	5
TAP	80	96	3
TAP	80	96	6
TAP	80	168	2
TAP	80	192	5
TAP	80	216	3
TAP	80	240	6
TAP	80	264	1
TAP	80	288	4
TAP	80	336	0
TAP	80	336	3
TAP	81	0	2
TAP	81	0	5
TAP	81	48	1
TAP	81	48	4
TAP	81	96	3
TAP	81	96	6
BST	81	192	0
SXL	81	192	0	96	24	2
BRK	81	192	1
BST	81	264	0
SXR	81	264	0	96	24	6
BRK	81	264	7
BRK	81	336	0
TAP	82	48	2
TAP	82	48	5
TAP	82	96	1
TAP	82	96	4
TAP	82	168	5
TAP	82	192	2
TAP	82	216	4
TAP	82	240	1
TAP	82	264	6
TAP	82	288	3
TAP	82	336	4
TAP	82	336	7
TAP	83	0	2
TAP	83	0	5
TAP	83	48	3
TAP	83	48	6
TAP	83	96	1
TAP	83	96	4
STR	83	192	1
SI_	83	192	1	96	24	4
STR	83	192	5
SI_	83	192	5	96	24	0
BRK	83	264	1
BRK	83	264	5
TAP	84	0	2
TAP	84	0	6
TAP	84	96	2
TAP	84	120	0
TAP	84	144	3
TAP	84	168	7
TAP	84	192	4
TAP	84	216	6
TAP	84	240	2
TAP	84	288	0
TAP	84	288	4
TAP	84	360	3
TAP	84	360	7
TAP	85	48	2
TAP	85	48	5
TAP	85	96	0
TAP	85	128	6
TAP	85	160	4
TAP	85	192	7
TAP	85	224	1
TAP	85	256	3
TAP	85	288	2
TAP	85	312	0
TAP	85	336	4
TAP	85	360	6
TAP	86	0	2
TAP	86	48	4
TAP	86	48	5
TAP	86	120	0
TAP	86	144	7
TAP	86	192	2
TAP	86	192	3
TAP	86	264	4
TAP	86	264	5
TAP	86	336	3
TAP	86	336	7
TAP	87	24	1
TAP	87	48	4
TAP	87	96	5
TAP	87	96	7
TAP	87	168	0
TAP	87	168	2
TAP	87	216	6
TAP	87	240	3
STR	87	288	0
SI_	87	288	0	96	24	5
STR	87	288	4
SI_	87	288	4	96	24	1
HLD	87	312	0	48
HLD	87	312	4	48

T_REC_TAP	705
T_REC_BRK	27
T_REC_XTP	0
T_REC_HLD	27
T_REC_XHO	0
T_REC_STR	69
T_REC_BST	9
T_REC_XST	0
T_REC_TTP	0
T_REC_THO	0
T_REC_SLD	78
T_REC_ALL	915
T_NUM_TAP	774
T_NUM_BRK	36
T_NUM_HLD	27
T_NUM_SLD	78
T_NUM_ALL	915
T_JUDGE_TAP	810
T_JUDGE_HLD	34
T_JUDGE_SLD	78
T_JUDGE_ALL	922
TTM_EACHPAIRS	233
TTM_SCR_TAP	387000
TTM_SCR_BRK	93600
TTM_SCR_HLD	27000
TTM_SCR_SLD	117000
TTM_SCR_ALL	624600
TTM_SCR_S	602400
TTM_SCR_SS	621000
TTM_RAT_ACV	10057

