VERSION	0.00.00	1.03.00
FES_MODE	0
BPM_DEF	155.000	155.000	155.000	155.000
MET_DEF	4	4
RESOLUTION	384
CLK_DEF	384
COMPATIBLE_CODE	MA2

BPM	0	0	155.000
MET	0	0	4	4

TAP	2	0	1
TAP	2	48	0
TAP	2	96	1
TAP	2	192	5
TAP	2	240	4
TAP	2	288	5
TAP	3	0	7
TAP	3	48	6
STR	3	96	7
SI_	3	96	7	96	96	3
SI_	3	96	7	96	96	4
TAP	4	0	6
TAP	4	48	7
TAP	4	96	6
TAP	4	192	2
TAP	4	240	3
TAP	4	288	2
TAP	5	0	0
TAP	5	48	1
STR	5	96	0
SI_	5	96	0	96	96	3
SI_	5	96	0	96	96	4
TAP	6	0	1
TAP	6	48	2
TAP	6	96	3
TAP	6	192	5
TAP	6	240	6
TAP	6	288	7
TAP	7	0	1
TAP	7	48	2
STR	7	96	3
SI_	7	96	3	96	96	0
SI_	7	96	3	96	96	6
TAP	8	0	6
TAP	8	48	5
TAP	8	96	4
TAP	8	192	2
TAP	8	240	1
TAP	8	288	0
TAP	9	0	6
TAP	9	48	5
STR	9	96	4
SI_	9	96	4	96	96	1
SI_	9	96	4	96	96	7
BRK	10	0	1
BRK	10	0	7
TAP	10	48	0
STR	10	96	1
SV_	10	96	1	96	96	2
STR	10	96	7
SV_	10	96	7	96	96	6
TAP	11	0	3
TAP	11	48	4
TAP	11	96	2
TAP	11	144	5
TAP	11	192	3
TAP	11	192	4
TAP	11	264	3
TAP	11	264	4
BRK	11	336	1
BRK	11	336	6
TAP	12	48	7
STR	12	96	0
SV_	12	96	0	96	96	1
STR	12	96	6
SV_	12	96	6	96	96	5
TAP	13	0	7
TAP	13	48	0
TAP	13	96	6
TAP	13	144	1
TAP	13	192	0
TAP	13	192	7
TAP	13	264	0
TAP	13	264	7
BRK	13	336	2
BRK	13	336	5
TAP	14	48	4
STR	14	96	3
SV_	14	96	3	96	96	2
STR	14	96	5
SV_	14	96	5	96	96	6
TAP	15	0	7
TAP	15	48	0
TAP	15	96	1
TAP	15	144	2
TAP	15	192	3
TAP	15	192	4
TAP	15	264	3
TAP	15	264	4
BRK	15	336	2
BRK	15	336	5
TAP	16	48	3
STR	16	96	2
SV_	16	96	2	96	96	1
STR	16	96	4
SV_	16	96	4	96	96	5
TAP	17	0	3
TAP	17	48	4
TAP	17	96	5
TAP	17	144	6
TAP	17	192	0
TAP	17	192	7
TAP	17	264	0
TAP	17	264	7
BST	18	0	3
SUR	18	0	3	96	96	0
BST	18	0	4
SUL	18	0	4	96	96	7
STR	18	288	0
SLR	18	288	0	96	96	4
STR	18	288	7
SLL	18	288	7	96	96	3
TAP	19	192	2
TAP	19	240	3
STR	19	288	4
SI_	19	288	4	96	48	1
STR	19	336	5
SI_	19	336	5	96	48	0
STR	20	192	2
SI_	20	192	2	96	48	7
STR	20	264	3
SI_	20	264	3	96	48	6
TAP	21	96	0
TAP	21	96	7
TAP	21	168	1
TAP	21	168	6
TAP	21	288	3
TAP	21	288	4
BST	22	0	1
SCL	22	0	1	96	288	4
BST	22	0	6
SCR	22	0	6	96	288	3
TAP	23	288	5
TAP	23	336	4
HLD	24	0	3	576
STR	24	144	5
SCR	24	144	5	96	336	2
HLD	26	0	0	144
STR	26	144	6
SI_	26	144	6	96	240	3
STR	26	288	7
SI_	26	288	7	96	144	2
STR	27	240	1
SCL	27	240	1	96	144	6
STR	27	288	2
SUL	27	288	2	96	96	5
STR	28	240	5
SUR	28	240	5	96	144	2
STR	28	288	6
SCR	28	288	6	96	96	1
STR	30	0	1
SCL	30	0	1	96	384	2
STR	30	0	2
SCR	30	0	2	96	384	1
STR	31	288	5
SCL	31	288	5	96	384	6
STR	31	288	6
SCR	31	288	6	96	384	5
TAP	31	336	5
TAP	31	336	6
HLD	34	0	1	144
TAP	34	0	7
STR	34	144	3
SI_	34	144	3	96	240	0
SI_	34	144	3	96	240	6
STR	35	240	1
SCL	35	240	1	96	144	6
STR	35	288	2
SUL	35	288	2	96	96	5
TAP	36	240	4
TAP	36	240	5
TAP	36	288	3
TAP	36	288	6
STR	36	336	2
SCL	36	336	2	96	240	5
HLD	36	336	7	144
BRK	38	0	0
BRK	38	0	7
TAP	38	48	1
HLD	38	96	2	192
TAP	38	192	1
TAP	38	240	0
TAP	38	288	7
TAP	39	0	0
TAP	39	0	7
TAP	39	48	6
HLD	39	96	5	192
TAP	39	192	6
TAP	39	240	7
TAP	39	288	0
TAP	40	0	3
TAP	40	0	4
TAP	40	48	5
HLD	40	96	6	192
TAP	40	192	5
TAP	40	240	4
TAP	40	288	3
TAP	41	0	3
TAP	41	0	4
TAP	41	48	2
HLD	41	96	1	192
TAP	41	192	2
TAP	41	240	3
TAP	41	288	4
TAP	42	0	6
TAP	42	0	7
TAP	42	48	0
HLD	42	96	1	192
TAP	42	192	0
TAP	42	240	7
TAP	42	288	6
TAP	43	0	6
TAP	43	0	7
TAP	43	48	5
HLD	43	96	4	192
TAP	43	192	5
TAP	43	240	6
TAP	43	288	7
TAP	44	0	2
TAP	44	0	3
TAP	44	48	4
HLD	44	96	5	192
TAP	44	192	4
TAP	44	240	3
TAP	44	288	2
TAP	45	0	2
TAP	45	0	3
TAP	45	48	1
HLD	45	96	0	192
TAP	45	192	1
TAP	45	240	2
TAP	45	288	3
BST	45	336	4
SF_	45	336	4	96	96	0
TAP	46	240	1
STR	46	288	1
SF_	46	288	1	96	96	5
TAP	47	240	6
STR	47	312	6
SF_	47	312	6	96	72	2
STR	48	240	3
SF_	48	240	3	96	144	7
BST	49	336	7
SLL	49	336	7	96	96	3
SLR	49	336	7	96	96	3
TAP	50	240	3
STR	50	288	3
SUL	50	288	3	96	96	6
SUR	50	288	3	96	96	0
TAP	51	240	2
TAP	51	240	4
TAP	51	288	1
TAP	51	288	5
TAP	51	336	0
TAP	51	336	6
STR	52	48	7
SF_	52	48	7	96	240	3
TAP	53	240	1
TAP	53	240	5
TAP	53	288	2
TAP	53	288	6
BRK	53	336	3
HLD	53	336	7	528
TAP	54	96	4
TAP	54	192	2
TAP	54	288	5
TAP	55	0	1
STR	55	96	6
SI_	55	96	6	96	48	2
BRK	55	336	0
BRK	55	336	7
TAP	56	48	4
TAP	56	48	5
TAP	56	96	3
HLD	56	96	6	168
TAP	56	192	0
TAP	56	264	5
TAP	56	336	0
TAP	56	336	7
TAP	57	48	2
TAP	57	48	3
HLD	57	96	1	168
TAP	57	96	4
TAP	57	192	7
TAP	57	264	2
TAP	57	336	0
TAP	57	336	7
TAP	58	48	4
TAP	58	48	5
TAP	58	96	3
HLD	58	96	6	168
TAP	58	192	0
TAP	58	264	5
TAP	58	336	0
TAP	58	336	7
TAP	59	48	2
TAP	59	48	3
HLD	59	96	1	168
TAP	59	96	4
TAP	59	192	7
TAP	59	264	2
BRK	59	336	3
BRK	59	336	4
TAP	60	48	6
TAP	60	48	7
HLD	60	96	0	168
TAP	60	96	5
TAP	60	192	2
TAP	60	264	6
TAP	60	336	3
TAP	60	336	4
TAP	61	48	0
TAP	61	48	1
TAP	61	96	2
HLD	61	96	7	168
TAP	61	192	5
TAP	61	264	1
TAP	61	336	3
TAP	61	336	4
TAP	62	48	6
TAP	62	48	7
HLD	62	96	0	168
TAP	62	96	5
TAP	62	192	2
TAP	62	264	6
TAP	62	336	3
TAP	62	336	4
TAP	63	48	0
TAP	63	48	1
TAP	63	96	2
HLD	63	96	7	168
TAP	63	192	5
TAP	63	264	1
BRK	63	336	3
BRK	63	336	4
TAP	64	48	5
TAP	64	48	6
TAP	64	96	4
HLD	64	96	7	168
TAP	64	192	1
TAP	64	264	5
TAP	64	336	0
TAP	64	336	7
TAP	65	48	1
TAP	65	48	2
HLD	65	96	0	168
TAP	65	96	3
TAP	65	192	6
TAP	65	264	2
BST	65	336	0
SCR	65	336	0	96	336	7
BST	65	336	7
SCL	65	336	7	96	336	0
TAP	67	192	3
BRK	67	192	6
TAP	67	264	3
BRK	67	264	6
BRK	67	336	0
STR	67	336	3
SCL	67	336	3	96	96	7
TAP	68	192	6
TAP	68	240	5
STR	68	288	4
SCR	68	288	4	96	96	0
TAP	69	192	2
TAP	69	192	6
TAP	69	264	3
TAP	69	264	7
BST	69	336	0
SI_	69	336	0	96	144	5
BST	69	336	4
SI_	69	336	4	96	144	1
TAP	71	0	0
TAP	71	48	2
TAP	71	96	4
TAP	71	144	6
STR	71	192	0
SI_	71	192	0	96	48	3
STR	71	192	7
SI_	71	192	7	96	48	4
BRK	72	0	1
TAP	72	48	4
TAP	72	96	2
TAP	72	144	3
TAP	72	192	1
TAP	72	240	4
TAP	72	288	2
TAP	72	336	3
TAP	73	0	1
TAP	73	48	4
STR	73	96	3
SXR	73	96	3	96	96	3
TAP	74	0	6
TAP	74	48	3
TAP	74	96	5
TAP	74	144	4
TAP	74	192	6
TAP	74	240	3
TAP	74	288	5
TAP	74	336	4
TAP	75	0	6
TAP	75	48	3
STR	75	96	4
SXL	75	96	4	96	96	4
BRK	76	0	1
BRK	76	0	7
TAP	76	48	4
STR	76	96	2
SLR	76	96	2	96	96	1
STR	76	96	6
SLL	76	96	6	96	96	7
TAP	77	0	0
TAP	77	48	7
TAP	77	96	1
TAP	77	144	6
TAP	77	192	2
TAP	77	192	3
TAP	77	264	4
TAP	77	264	5
BRK	77	336	0
BRK	77	336	7
TAP	78	48	3
STR	78	96	1
SLR	78	96	1	96	96	0
STR	78	96	5
SLL	78	96	5	96	96	6
TAP	79	0	4
TAP	79	48	3
TAP	79	96	5
TAP	79	144	2
TAP	79	192	0
TAP	79	192	1
TAP	79	264	6
TAP	79	264	7
BRK	79	336	3
BRK	79	336	4
TAP	80	48	0
STR	80	96	2
SLL	80	96	2	96	96	3
STR	80	96	6
SLR	80	96	6	96	96	5
TAP	81	0	7
TAP	81	48	0
TAP	81	96	1
TAP	81	144	2
TAP	81	192	3
TAP	81	192	4
TAP	81	264	2
TAP	81	264	5
BRK	81	336	0
BRK	81	336	7
TAP	82	48	7
STR	82	96	1
SLL	82	96	1	96	96	2
STR	82	96	5
SLR	82	96	5	96	96	4
TAP	83	0	3
TAP	83	48	4
TAP	83	96	5
TAP	83	144	6
TAP	83	192	0
TAP	83	192	7
TAP	83	264	1
TAP	83	264	6
BRK	84	0	3
BST	84	0	4
SCR	84	0	4	96	96	0
STR	84	288	0
SLL	84	288	0	96	96	4
SLR	84	288	0	96	96	4
TAP	85	192	2
TAP	85	240	3
STR	85	288	4
SI_	85	288	4	96	48	1
STR	85	336	5
SI_	85	336	5	96	48	0
STR	86	192	2
SI_	86	192	2	96	48	7
STR	86	264	3
SI_	86	264	3	96	48	6
STR	87	96	3
SI_	87	96	3	96	48	1
STR	87	96	4
SI_	87	96	4	96	48	6
TAP	87	288	0
TAP	87	288	7
BRK	87	360	1
BRK	87	360	6

T_REC_TAP	283
T_REC_BRK	32
T_REC_XTP	0
T_REC_HLD	23
T_REC_XHO	0
T_REC_STR	60
T_REC_BST	11
T_REC_XST	0
T_REC_TTP	0
T_REC_THO	0
T_REC_SLD	79
T_REC_ALL	488
T_NUM_TAP	343
T_NUM_BRK	43
T_NUM_HLD	23
T_NUM_SLD	79
T_NUM_ALL	488
T_JUDGE_TAP	386
T_JUDGE_HLD	104
T_JUDGE_SLD	79
T_JUDGE_ALL	569
TTM_EACHPAIRS	101
TTM_SCR_TAP	171500
TTM_SCR_BRK	111800
TTM_SCR_HLD	23000
TTM_SCR_SLD	118500
TTM_SCR_ALL	424800
TTM_SCR_S	407900
TTM_SCR_SS	420500
TTM_RAT_ACV	10102

