VERSION	0.00.00	1.03.00
FES_MODE	0
BPM_DEF	155.000	155.000	155.000	155.000
MET_DEF	4	4
RESOLUTION	384
CLK_DEF	384
COMPATIBLE_CODE	MA2

BPM	0	0	155.000
MET	0	0	4	4

TAP	2	0	2
TAP	2	96	2
TAP	2	192	5
TAP	2	288	5
TAP	3	0	3
TAP	3	96	3
TAP	3	192	4
TAP	3	288	4
TAP	4	0	2
TAP	4	96	3
TAP	4	192	5
TAP	4	288	4
TAP	5	0	1
TAP	5	96	3
TAP	5	192	6
TAP	5	288	4
TAP	6	0	2
TAP	6	96	2
TAP	6	96	3
TAP	6	192	5
TAP	6	288	4
TAP	6	288	5
TAP	7	0	2
TAP	7	96	2
TAP	7	96	3
TAP	7	192	5
TAP	7	288	4
TAP	7	288	5
TAP	8	0	2
TAP	8	96	1
TAP	8	96	3
TAP	8	192	5
TAP	8	288	4
TAP	8	288	6
TAP	9	0	2
TAP	9	96	1
TAP	9	96	3
TAP	9	192	5
TAP	9	288	4
TAP	9	288	6
TAP	10	0	0
TAP	10	96	1
TAP	10	192	2
TAP	10	288	3
TAP	10	288	4
TAP	11	0	5
TAP	11	96	6
TAP	11	192	0
TAP	11	192	7
TAP	11	264	0
TAP	11	264	7
TAP	11	336	0
TAP	11	336	7
TAP	12	96	6
TAP	12	192	5
TAP	12	288	3
TAP	12	288	4
TAP	13	0	2
TAP	13	96	1
TAP	13	192	0
TAP	13	192	7
TAP	13	264	0
TAP	13	264	7
TAP	13	336	0
TAP	13	336	7
TAP	14	96	1
TAP	14	192	2
TAP	14	288	3
TAP	14	288	4
TAP	15	0	5
TAP	15	96	6
TAP	15	192	0
TAP	15	192	7
TAP	15	264	0
TAP	15	264	7
TAP	15	336	0
TAP	15	336	7
TAP	16	96	6
TAP	16	192	5
TAP	16	288	3
TAP	16	288	4
TAP	17	0	2
TAP	17	96	1
BRK	17	192	0
BRK	17	192	7
STR	18	0	1
SXL	18	0	1	96	288	4
STR	20	48	6
SXR	20	48	6	96	288	3
TAP	22	0	0
TAP	22	0	1
TAP	22	96	2
TAP	22	192	3
TAP	22	288	4
TAP	23	0	6
TAP	23	0	7
TAP	23	96	5
TAP	23	192	4
TAP	23	288	3
TAP	24	0	0
TAP	24	0	1
TAP	24	96	2
TAP	24	192	3
TAP	24	288	4
TAP	25	0	6
TAP	25	0	7
TAP	25	96	5
TAP	25	192	4
TAP	25	288	3
TAP	26	0	2
TAP	26	0	3
TAP	26	96	1
TAP	26	192	0
TAP	26	288	7
TAP	27	0	4
TAP	27	0	5
TAP	27	96	6
TAP	27	192	7
TAP	27	288	0
TAP	28	0	2
TAP	28	0	3
TAP	28	96	1
TAP	28	192	0
TAP	28	288	7
TAP	29	0	4
TAP	29	0	5
TAP	29	96	6
TAP	29	192	7
TAP	29	288	0
TAP	30	0	0
TAP	30	0	1
TAP	30	96	2
TAP	30	192	3
TAP	30	288	4
TAP	30	288	5
TAP	31	0	6
TAP	31	0	7
TAP	31	96	5
TAP	31	192	4
TAP	31	288	2
TAP	31	288	3
TAP	32	0	0
TAP	32	0	1
TAP	32	96	2
TAP	32	192	3
TAP	32	288	4
TAP	32	288	5
TAP	33	0	6
TAP	33	0	7
TAP	33	96	5
TAP	33	192	4
TAP	33	288	2
TAP	33	288	3
TAP	34	0	0
TAP	34	0	1
TAP	34	96	5
TAP	34	192	4
TAP	34	288	2
TAP	34	288	3
TAP	35	0	6
TAP	35	0	7
TAP	35	96	2
TAP	35	192	3
TAP	35	288	4
TAP	35	288	5
TAP	36	0	0
TAP	36	0	1
TAP	36	96	5
TAP	36	192	4
TAP	36	288	2
TAP	36	288	3
TAP	37	0	6
TAP	37	0	7
TAP	37	96	2
TAP	37	192	3
TAP	37	288	4
TAP	37	288	5
HLD	38	0	2	288
TAP	38	96	3
TAP	38	192	3
TAP	38	288	3
HLD	39	0	5	288
TAP	39	96	4
TAP	39	192	4
TAP	39	288	4
HLD	40	0	1	288
TAP	40	96	3
TAP	40	192	3
TAP	40	288	3
HLD	41	0	6	288
TAP	41	96	4
TAP	41	192	4
TAP	41	288	4
HLD	42	0	1	288
TAP	42	96	2
TAP	42	192	2
TAP	42	288	2
HLD	43	0	6	288
TAP	43	96	5
TAP	43	192	5
TAP	43	288	5
HLD	44	0	1	288
TAP	44	96	0
TAP	44	192	0
TAP	44	288	0
HLD	45	0	6	288
TAP	45	96	7
TAP	45	192	7
TAP	45	288	7
HLD	46	0	2	192
TAP	46	96	3
TAP	46	192	3
TAP	46	288	2
TAP	46	288	3
HLD	47	0	5	192
TAP	47	96	4
TAP	47	192	4
TAP	47	288	4
TAP	47	288	5
HLD	48	0	1	192
TAP	48	96	3
TAP	48	192	3
TAP	48	288	2
TAP	48	288	3
HLD	49	0	6	192
TAP	49	96	4
TAP	49	192	4
TAP	49	288	4
TAP	49	288	5
HLD	50	0	1	192
TAP	50	96	2
TAP	50	192	2
TAP	50	288	0
TAP	50	288	7
HLD	51	0	6	192
TAP	51	96	5
TAP	51	192	5
TAP	51	288	0
TAP	51	288	7
HLD	52	0	1	192
TAP	52	96	3
TAP	52	192	3
TAP	52	288	0
TAP	52	288	7
HLD	53	0	6	192
TAP	53	96	4
TAP	53	192	4
BST	53	288	0
SXL	53	288	0	96	480	3
BST	53	288	7
SXR	53	288	7	96	480	4
HLD	55	336	5	144
TAP	56	96	4
TAP	56	192	3
TAP	56	192	4
TAP	56	264	3
TAP	56	264	4
HLD	56	336	2	144
TAP	57	96	3
TAP	57	192	3
TAP	57	192	4
TAP	57	264	3
TAP	57	264	4
HLD	57	336	6	144
TAP	58	96	4
TAP	58	192	3
TAP	58	192	4
TAP	58	264	3
TAP	58	264	4
HLD	58	336	1	144
TAP	59	96	3
TAP	59	192	3
TAP	59	192	4
TAP	59	264	3
TAP	59	264	4
HLD	59	336	6	144
TAP	60	96	3
TAP	60	192	4
TAP	60	192	5
TAP	60	264	4
TAP	60	264	5
HLD	60	336	1	144
TAP	61	96	4
TAP	61	192	2
TAP	61	192	3
TAP	61	264	2
TAP	61	264	3
TAP	61	336	1
HLD	61	336	6	144
TAP	62	96	3
TAP	62	192	4
TAP	62	192	5
TAP	62	264	4
TAP	62	264	5
HLD	62	336	1	144
TAP	62	336	6
TAP	63	96	4
TAP	63	192	2
TAP	63	192	3
TAP	63	264	2
TAP	63	264	3
HLD	63	336	5	144
TAP	64	96	2
TAP	64	192	3
TAP	64	240	4
TAP	64	288	3
HLD	64	336	4	144
TAP	65	96	3
TAP	65	192	2
TAP	65	192	5
TAP	65	264	2
TAP	65	264	5
HLD	65	336	0	144
TAP	65	336	7
TAP	66	96	5
TAP	66	192	6
TAP	66	192	7
TAP	66	264	6
TAP	66	264	7
TAP	66	336	0
HLD	66	336	7	144
TAP	67	96	2
TAP	67	192	0
TAP	67	192	1
TAP	67	264	0
TAP	67	264	1
HLD	67	336	1	144
TAP	67	336	6
TAP	68	96	6
TAP	68	192	0
TAP	68	240	7
TAP	68	288	0
HLD	68	336	7	144
TAP	69	96	0
TAP	69	192	0
TAP	69	192	7
TAP	69	264	1
TAP	69	264	6
BST	69	336	0
SCR	69	336	0	96	336	7
BRK	69	336	7
TAP	72	0	1
TAP	72	96	0
TAP	72	96	1
TAP	72	192	6
TAP	72	288	6
TAP	72	288	7
TAP	73	0	1
TAP	73	96	0
TAP	73	96	2
TAP	73	192	6
TAP	73	288	5
TAP	73	288	7
TAP	74	0	0
TAP	74	0	1
TAP	74	96	0
TAP	74	96	2
TAP	74	192	6
TAP	74	192	7
TAP	74	288	5
TAP	74	288	7
TAP	75	0	0
TAP	75	0	1
TAP	75	96	2
TAP	75	96	7
TAP	75	192	6
TAP	75	192	7
TAP	75	288	0
TAP	75	288	5
TAP	76	0	2
TAP	76	0	3
TAP	76	96	0
TAP	76	192	4
TAP	76	192	5
TAP	76	288	7
TAP	77	0	2
TAP	77	0	3
TAP	77	96	0
TAP	77	192	0
TAP	77	192	1
TAP	77	264	0
TAP	77	264	1
TAP	77	336	2
TAP	77	336	7
TAP	78	96	7
TAP	78	192	2
TAP	78	192	3
TAP	78	288	0
TAP	79	0	4
TAP	79	0	5
TAP	79	96	7
TAP	79	192	6
TAP	79	192	7
TAP	79	264	6
TAP	79	264	7
TAP	79	336	0
TAP	79	336	5
TAP	80	96	0
TAP	80	96	7
TAP	80	192	2
TAP	80	192	3
TAP	80	288	0
TAP	80	288	7
TAP	81	0	4
TAP	81	0	5
TAP	81	96	1
TAP	81	96	6
TAP	81	192	3
TAP	81	192	4
TAP	81	264	3
TAP	81	264	4
TAP	81	336	1
TAP	81	336	6
TAP	82	96	0
TAP	82	96	7
TAP	82	192	2
TAP	82	192	3
TAP	82	288	0
TAP	82	288	7
TAP	83	0	4
TAP	83	0	5
TAP	83	96	2
TAP	83	96	3
BRK	83	192	0
BRK	83	192	7
STR	84	0	2
SXR	84	0	2	96	288	4
STR	86	48	5
SXL	86	48	5	96	288	3
BRK	87	360	0
BRK	87	360	7

T_REC_TAP	380
T_REC_BRK	7
T_REC_XTP	0
T_REC_HLD	30
T_REC_XHO	0
T_REC_STR	4
T_REC_BST	3
T_REC_XST	0
T_REC_TTP	0
T_REC_THO	0
T_REC_SLD	7
T_REC_ALL	431
T_NUM_TAP	384
T_NUM_BRK	10
T_NUM_HLD	30
T_NUM_SLD	7
T_NUM_ALL	431
T_JUDGE_TAP	394
T_JUDGE_HLD	122
T_JUDGE_SLD	7
T_JUDGE_ALL	523
TTM_EACHPAIRS	122
TTM_SCR_TAP	192000
TTM_SCR_BRK	26000
TTM_SCR_HLD	30000
TTM_SCR_SLD	10500
TTM_SCR_ALL	258500
TTM_SCR_S	249800
TTM_SCR_SS	257500
TTM_RAT_ACV	10038

