VERSION	0.00.00	1.03.00
FES_MODE	0
BPM_DEF	155.000	155.000	155.000	155.000
MET_DEF	4	4
RESOLUTION	384
CLK_DEF	384
COMPATIBLE_CODE	MA2

BPM	0	0	155.000
MET	0	0	4	4

TAP	2	0	0
TAP	2	192	1
TAP	3	0	2
TAP	3	192	3
TAP	3	192	4
TAP	4	0	4
TAP	4	192	5
TAP	5	0	6
TAP	5	192	0
TAP	5	192	7
TAP	6	0	6
TAP	6	192	5
TAP	7	0	4
TAP	7	192	2
TAP	7	192	3
TAP	8	0	2
TAP	8	192	1
TAP	9	0	0
TAP	9	192	6
TAP	9	192	7
TAP	10	0	7
TAP	10	96	7
TAP	10	192	6
TAP	10	288	6
TAP	11	0	5
TAP	11	96	5
TAP	11	192	3
TAP	11	192	4
TAP	12	0	3
TAP	12	96	3
TAP	12	192	2
TAP	12	288	2
TAP	13	0	1
TAP	13	96	1
TAP	13	192	0
TAP	13	192	7
TAP	14	0	1
TAP	14	96	1
TAP	14	192	2
TAP	14	288	2
TAP	15	0	3
TAP	15	96	3
TAP	15	192	4
TAP	15	192	5
TAP	16	0	5
TAP	16	96	5
TAP	16	192	6
TAP	16	288	6
TAP	17	0	7
TAP	17	96	7
BRK	17	192	0
BRK	17	192	1
STR	18	0	1
SI_	18	0	1	96	288	6
STR	20	48	5
SI_	20	48	5	96	288	2
TAP	22	0	3
TAP	22	96	3
TAP	22	192	3
TAP	23	0	2
TAP	23	96	2
TAP	23	192	2
TAP	24	0	1
TAP	24	96	1
TAP	24	192	1
TAP	25	0	0
TAP	25	96	0
TAP	25	192	0
TAP	26	0	7
TAP	26	96	7
TAP	26	192	7
TAP	27	0	6
TAP	27	96	6
TAP	27	192	6
TAP	28	0	5
TAP	28	96	5
TAP	28	192	5
TAP	29	0	4
TAP	29	96	4
TAP	29	192	3
TAP	29	192	4
TAP	30	0	4
TAP	30	96	4
TAP	30	192	4
TAP	31	0	5
TAP	31	96	5
TAP	31	192	5
TAP	32	0	6
TAP	32	96	6
TAP	32	192	6
TAP	33	0	7
TAP	33	96	7
TAP	33	192	7
TAP	34	0	0
TAP	34	96	0
TAP	34	192	0
TAP	35	0	1
TAP	35	96	1
TAP	35	192	1
TAP	36	0	2
TAP	36	96	2
TAP	36	192	2
TAP	37	0	3
TAP	37	96	3
BRK	37	192	3
BRK	37	192	4
STR	38	0	3
SI_	38	0	3	96	288	0
STR	40	0	4
SI_	40	0	4	96	288	7
STR	42	0	0
SI_	42	0	0	96	288	3
STR	44	0	7
SI_	44	0	7	96	288	4
STR	46	0	2
SI_	46	0	2	96	288	7
STR	48	0	5
SI_	48	0	5	96	288	0
HLD	50	0	0	192
HLD	51	0	7	192
STR	52	0	0
SI_	52	0	0	96	288	3
STR	52	0	7
SI_	52	0	7	96	288	4
HLD	54	0	2	384
HLD	54	0	5	384
TAP	56	0	5
TAP	56	96	5
TAP	56	192	5
TAP	57	0	2
TAP	57	96	2
TAP	57	192	2
TAP	58	0	4
TAP	58	96	4
TAP	58	192	4
TAP	59	0	3
TAP	59	96	3
TAP	59	192	3
TAP	60	0	5
TAP	60	96	5
TAP	60	192	4
TAP	60	192	5
TAP	61	0	2
TAP	61	96	2
TAP	61	192	2
TAP	61	192	3
TAP	62	0	1
TAP	62	96	1
TAP	62	192	0
TAP	62	192	1
TAP	63	0	6
TAP	63	96	6
TAP	63	192	6
TAP	63	192	7
TAP	64	0	0
TAP	64	96	0
TAP	64	192	1
TAP	65	0	2
TAP	65	96	2
TAP	65	192	3
TAP	65	192	4
TAP	66	0	4
TAP	66	96	4
TAP	66	192	5
TAP	67	0	6
TAP	67	96	6
TAP	67	192	0
TAP	67	192	7
TAP	68	0	7
TAP	68	96	7
TAP	68	192	6
TAP	69	0	5
TAP	69	96	5
TAP	69	192	3
TAP	69	192	4
TAP	70	0	3
TAP	70	96	3
TAP	70	192	2
TAP	71	0	1
TAP	71	96	1
BRK	71	192	0
BRK	71	192	7
TAP	72	0	1
TAP	72	96	1
TAP	72	192	0
TAP	72	288	0
TAP	73	0	1
TAP	73	96	1
TAP	73	192	0
TAP	73	192	1
TAP	74	0	2
TAP	74	96	2
TAP	74	192	3
TAP	74	288	3
TAP	75	0	2
TAP	75	96	2
TAP	75	192	2
TAP	75	192	3
TAP	76	0	5
TAP	76	96	5
TAP	76	192	4
TAP	76	288	4
TAP	77	0	5
TAP	77	96	5
TAP	77	192	4
TAP	77	192	5
TAP	78	0	6
TAP	78	96	6
TAP	78	192	7
TAP	78	288	7
TAP	79	0	6
TAP	79	96	6
TAP	79	192	6
TAP	79	192	7
TAP	80	0	6
TAP	80	96	5
TAP	80	192	4
TAP	80	288	3
TAP	81	0	2
TAP	81	96	1
TAP	81	192	0
TAP	81	192	7
TAP	82	0	1
TAP	82	96	2
TAP	82	192	3
TAP	82	288	4
TAP	83	0	5
TAP	83	96	6
BRK	83	192	0
BRK	83	192	7
STR	84	0	6
SI_	84	0	6	96	288	2
STR	86	48	0
SI_	86	48	0	96	288	4
TAP	87	360	3

T_REC_TAP	199
T_REC_BRK	8
T_REC_XTP	0
T_REC_HLD	4
T_REC_XHO	0
T_REC_STR	12
T_REC_BST	0
T_REC_XST	0
T_REC_TTP	0
T_REC_THO	0
T_REC_SLD	12
T_REC_ALL	235
T_NUM_TAP	211
T_NUM_BRK	8
T_NUM_HLD	4
T_NUM_SLD	12
T_NUM_ALL	235
T_JUDGE_TAP	219
T_JUDGE_HLD	24
T_JUDGE_SLD	12
T_JUDGE_ALL	255
TTM_EACHPAIRS	26
TTM_SCR_TAP	105500
TTM_SCR_BRK	20800
TTM_SCR_HLD	4000
TTM_SCR_SLD	18000
TTM_SCR_ALL	148300
TTM_SCR_S	143100
TTM_SCR_SS	147500
TTM_RAT_ACV	10054

