VERSION	0.00.00	1.03.00
FES_MODE	0
BPM_DEF	120.000	120.000	120.000	120.000
MET_DEF	4	4
RESOLUTION	384
CLK_DEF	384
COMPATIBLE_CODE	MA2

BPM	0	0	120.000
MET	0	0	4	4

TAP	1	0	0
TAP	1	12	1
TAP	1	24	2
TAP	1	36	3
TAP	1	48	4
TAP	1	60	5
TAP	1	72	6
TAP	1	84	7
TAP	1	96	0
TAP	1	108	1
TAP	1	120	2
TAP	1	132	3
TAP	1	144	4
TAP	1	156	5
TAP	1	168	6
TAP	1	180	7
TAP	1	192	0
TAP	1	192	4
STR	1	288	2
SXR	1	288	2	96	672	6
STR	1	288	6
SXR	1	288	6	96	672	2
BRK	2	0	2
BRK	2	0	6
TAP	4	0	1
TAP	4	24	0
TAP	4	48	2
TAP	4	72	1
TAP	4	72	3
TAP	4	120	4
TAP	4	120	5
TAP	4	168	0
TAP	4	168	6
TAP	4	216	2
TAP	4	240	3
TAP	4	264	1
TAP	4	288	4
TAP	4	312	0
TAP	4	336	5
TAP	4	360	7
STR	5	0	6
SCR	5	0	6	96	36	1
TAP	5	72	6
TAP	5	144	2
TAP	5	168	3
STR	5	192	2
SCR	5	192	2	96	36	5
TAP	5	264	2
TAP	5	336	6
TAP	5	360	7
TAP	6	0	6
TAP	6	24	7
TAP	6	48	5
TAP	6	72	4
TAP	6	72	6
TAP	6	120	2
TAP	6	120	3
TAP	6	168	1
TAP	6	168	7
TAP	6	216	5
TAP	6	240	4
TAP	6	264	6
TAP	6	288	3
TAP	6	312	7
TAP	6	336	2
TAP	6	360	0
STR	7	0	1
SCL	7	0	1	96	36	6
TAP	7	72	1
TAP	7	144	5
TAP	7	168	4
STR	7	192	5
SCL	7	192	5	96	36	2
TAP	7	264	5
TAP	7	336	1
TAP	7	360	0
TAP	8	0	1
TAP	8	24	0
TAP	8	48	2
TAP	8	72	1
TAP	8	72	3
TAP	8	120	4
TAP	8	120	5
TAP	8	168	0
TAP	8	168	6
TAP	8	216	3
TAP	8	240	4
TAP	8	264	2
TAP	8	288	5
TAP	8	312	1
TAP	8	336	6
TAP	8	360	0
TAP	9	0	1
TAP	9	0	7
TAP	9	72	0
TAP	9	72	5
BRK	9	144	3
BRK	9	144	7
TAP	9	192	2
TAP	9	192	4
TAP	9	264	3
TAP	9	264	6
BRK	9	336	0
BRK	9	336	4
TAP	10	0	6
TAP	10	24	7
TAP	10	48	5
TAP	10	72	4
TAP	10	72	6
TAP	10	120	2
TAP	10	120	3
TAP	10	168	1
TAP	10	168	7
TAP	10	216	5
TAP	10	240	1
TAP	10	264	7
TAP	10	288	0
TAP	10	312	6
TAP	10	336	2
TAP	10	360	4
TAP	11	0	3
TAP	11	0	5
TAP	11	72	1
TAP	11	72	4
TAP	11	144	2
TAP	11	168	6
TAP	11	192	0
TAP	11	288	4
BRK	11	312	3
HLD	12	0	3	96
TAP	12	96	4
TAP	12	120	3
TAP	12	144	2
TAP	12	168	1
TAP	12	192	0
TAP	12	288	3
TAP	12	288	7
TAP	12	336	0
TAP	12	360	7
STR	13	0	0
SI_	13	0	0	96	36	3
STR	13	96	0
SXL	13	96	0	96	96	5
TAP	13	192	0
BRK	13	288	7
HLD	14	0	7	96
TAP	14	96	5
TAP	14	144	5
TAP	14	168	4
HLD	14	192	5	72
HLD	14	264	3	72
TAP	14	336	2
HLD	15	0	0	96
TAP	15	96	7
TAP	15	144	6
TAP	15	168	1
TAP	15	192	7
TAP	15	216	0
TAP	15	240	6
TAP	15	264	1
TAP	15	288	5
TAP	15	312	2
TAP	15	336	4
TAP	15	360	3
HLD	16	0	4	96
TAP	16	96	3
TAP	16	120	4
TAP	16	144	5
TAP	16	168	6
TAP	16	192	7
TAP	16	288	0
TAP	16	288	4
TAP	16	336	7
TAP	16	360	0
STR	17	0	7
SI_	17	0	7	96	36	4
STR	17	96	7
SXR	17	96	7	96	96	2
TAP	17	192	7
BRK	17	288	0
HLD	18	0	0	96
TAP	18	96	2
TAP	18	144	2
TAP	18	168	3
HLD	18	192	2	72
HLD	18	264	4	72
TAP	18	336	5
TAP	19	0	7
TAP	19	24	2
TAP	19	48	4
BRK	19	72	1
BRK	19	72	5
BRK	19	120	2
BRK	19	120	6
BRK	19	168	0
BRK	19	168	4
TAP	19	288	3
TAP	19	288	4
STR	20	0	7
SUL	20	0	7	96	36	3
STR	20	72	0
SCR	20	72	0	96	36	3
TAP	20	144	0
STR	20	192	7
SUL	20	192	7	96	36	3
STR	20	264	0
SCR	20	264	0	96	36	3
TAP	20	336	0
STR	21	0	6
SUL	21	0	6	96	36	2
STR	21	72	1
SCR	21	72	1	96	36	4
TAP	21	144	1
STR	21	192	6
SUL	21	192	6	96	36	2
STR	21	264	1
SCR	21	264	1	96	36	4
TAP	21	336	1
STR	22	0	5
SUR	22	0	5	96	36	1
STR	22	72	0
SCR	22	72	0	96	36	3
TAP	22	144	0
STR	22	192	5
SUR	22	192	5	96	36	1
STR	22	264	0
SCR	22	264	0	96	36	3
TAP	22	336	0
STR	23	0	7
SCL	23	0	7	96	36	4
STR	23	72	3
SCL	23	72	3	96	36	0
TAP	23	144	3
TAP	23	192	7
BRK	23	288	2
BRK	23	288	3
BRK	23	336	4
BRK	23	336	5
STR	24	0	3
SUL	24	0	3	96	36	7
STR	24	72	4
SCR	24	72	4	96	36	7
TAP	24	144	4
STR	24	192	3
SUL	24	192	3	96	36	7
STR	24	264	4
SCR	24	264	4	96	36	7
TAP	24	336	4
STR	25	0	2
SUL	25	0	2	96	36	6
STR	25	72	5
SCR	25	72	5	96	36	0
TAP	25	144	5
STR	25	192	2
SUL	25	192	2	96	36	6
STR	25	264	5
SCR	25	264	5	96	36	0
TAP	25	336	5
STR	26	0	1
SUR	26	0	1	96	36	5
STR	26	72	4
SCR	26	72	4	96	36	7
TAP	26	144	4
STR	26	192	1
SUR	26	192	1	96	36	5
STR	26	264	4
SCR	26	264	4	96	36	7
TAP	26	336	4
STR	27	0	3
SCL	27	0	3	96	36	0
STR	27	72	7
SCL	27	72	7	96	36	4
TAP	27	144	7
TAP	27	192	3
BRK	27	288	0
BRK	27	288	1
BRK	27	336	6
BRK	27	336	7
TAP	28	0	0
TAP	28	0	4
TAP	28	48	0
TAP	28	48	4
TAP	28	64	1
TAP	28	64	5
TAP	28	80	2
TAP	28	80	6
TAP	28	96	3
TAP	28	96	7
TAP	28	144	3
TAP	28	192	5
TAP	28	240	1
TAP	28	288	7
TAP	28	312	2
TAP	28	336	4
STR	29	0	0
SUR	29	0	0	96	36	4
STR	29	0	4
SUR	29	0	4	96	36	0
STR	29	96	0
SCL	29	96	0	96	36	5
STR	29	96	4
SCL	29	96	4	96	36	1
STR	29	192	0
SV_	29	192	0	96	36	3
STR	29	192	4
SV_	29	192	4	96	36	7
BRK	29	288	0
BRK	29	288	4
STR	30	0	3
SUL	30	0	3	96	36	7
STR	30	0	7
SUL	30	0	7	96	36	3
STR	30	96	3
SCR	30	96	3	96	36	6
STR	30	96	7
SCR	30	96	7	96	36	2
STR	30	192	3
SV_	30	192	3	96	36	0
STR	30	192	7
SV_	30	192	7	96	36	4
BRK	30	288	3
BRK	30	288	7
TAP	31	0	0
TAP	31	24	7
TAP	31	48	1
TAP	31	72	6
TAP	31	96	2
TAP	31	120	5
TAP	31	144	3
TAP	31	168	4
TAP	31	192	3
TAP	31	216	4
TAP	31	240	2
TAP	31	264	5
TAP	31	288	1
TAP	31	312	6
TAP	31	336	0
TAP	31	360	7
STR	32	0	0
SCR	32	0	0	96	24	3
BRK	32	96	7
BRK	32	102	6
BRK	32	108	5
BRK	32	114	4
TAP	32	192	0
TAP	32	192	4
TAP	32	216	1
TAP	32	216	5
TAP	32	240	2
TAP	32	240	6
TAP	32	264	3
TAP	32	264	7
TAP	32	312	1
TAP	32	312	5
STR	33	0	1
SI_	33	0	1	96	24	4
TAP	33	24	0
TAP	33	48	1
TAP	33	72	0
TAP	33	96	1
TAP	33	144	6
TAP	33	168	7
STR	33	192	6
SI_	33	192	6	96	24	3
TAP	33	216	7
TAP	33	240	6
TAP	33	264	7
TAP	33	288	6
TAP	33	336	2
TAP	33	360	4
STR	34	0	2
SCL	34	0	2	96	24	7
TAP	34	96	2
TAP	34	96	7
TAP	34	102	6
TAP	34	108	5
TAP	34	114	4
TAP	34	192	1
TAP	34	216	5
TAP	34	240	3
TAP	34	264	7
TAP	34	312	1
TAP	34	312	5
STR	35	0	6
SI_	35	0	6	96	24	3
TAP	35	24	7
TAP	35	48	6
TAP	35	72	7
TAP	35	96	6
TAP	35	144	1
TAP	35	168	0
STR	35	192	1
SI_	35	192	1	96	24	4
TAP	35	216	0
TAP	35	240	1
TAP	35	264	0
TAP	35	288	1
TAP	35	336	5
TAP	35	360	3
STR	36	0	5
SCR	36	0	5	96	24	0
TAP	36	96	0
TAP	36	96	5
TAP	36	102	1
TAP	36	108	2
TAP	36	114	3
TAP	36	192	1
TAP	36	216	5
TAP	36	240	3
TAP	36	264	7
TAP	36	312	1
TAP	36	312	5
TAP	37	0	1
TAP	37	24	0
TAP	37	48	1
TAP	37	72	0
TAP	37	96	2
TAP	37	96	7
TAP	37	144	5
TAP	37	168	4
TAP	37	192	6
TAP	37	216	7
TAP	37	240	6
TAP	37	264	7
TAP	37	288	0
TAP	37	288	5
TAP	37	336	2
TAP	37	360	3
BRK	38	0	1
BRK	38	0	4
BRK	38	72	3
BRK	38	72	6
BRK	38	144	1
BRK	38	144	5
BRK	38	192	3
BRK	38	192	7
TAP	38	288	3
TAP	38	312	5
TAP	38	336	1
TAP	38	360	7
TAP	39	0	0
TAP	39	24	0
TAP	39	48	1
TAP	39	72	1
TAP	39	96	2
TAP	39	120	2
TAP	39	144	3
TAP	39	168	3
TAP	39	192	4
TAP	39	216	4
TAP	39	240	5
TAP	39	264	5
TAP	39	288	6
TAP	39	312	6
TAP	39	336	7
TAP	39	360	7
TAP	40	0	0
TAP	40	0	7
BRK	40	96	0
BRK	40	96	7
TAP	40	102	1
TAP	40	102	6
TAP	40	108	2
TAP	40	108	5
TAP	40	114	3
TAP	40	114	4
TAP	40	192	3
TAP	40	192	7
TAP	40	216	2
TAP	40	216	6
TAP	40	240	1
TAP	40	240	5
TAP	40	264	0
TAP	40	264	4
TAP	40	312	2
TAP	40	312	6
STR	41	0	1
SCR	41	0	1	96	24	4
TAP	41	24	0
TAP	41	48	1
TAP	41	72	0
BRK	41	96	1
TAP	41	144	5
TAP	41	168	4
STR	41	192	6
SCL	41	192	6	96	24	3
TAP	41	216	7
TAP	41	240	6
TAP	41	264	7
TAP	41	288	6
TAP	41	336	0
TAP	41	360	7
STR	42	0	1
SCR	42	0	1	96	24	4
TAP	42	96	1
TAP	42	96	4
TAP	42	102	5
TAP	42	108	6
TAP	42	114	7
TAP	42	192	1
TAP	42	216	5
TAP	42	240	3
TAP	42	264	7
TAP	42	312	1
TAP	42	312	5
STR	43	0	6
SCL	43	0	6	96	24	3
TAP	43	24	7
TAP	43	48	6
TAP	43	72	7
BRK	43	96	6
TAP	43	144	2
TAP	43	168	3
STR	43	192	1
SCR	43	192	1	96	24	4
TAP	43	216	0
TAP	43	240	1
TAP	43	264	0
TAP	43	288	1
TAP	43	336	7
TAP	43	360	0
STR	44	0	6
SCL	44	0	6	96	24	3
TAP	44	96	3
TAP	44	96	6
TAP	44	102	2
TAP	44	108	1
TAP	44	114	0
TAP	44	192	6
TAP	44	216	2
TAP	44	240	4
TAP	44	264	0
TAP	44	312	2
TAP	44	312	6
TAP	45	0	2
TAP	45	24	3
TAP	45	48	2
TAP	45	72	3
BRK	45	96	1
BRK	45	96	4
TAP	45	144	6
TAP	45	168	7
TAP	45	192	5
TAP	45	216	4
TAP	45	240	5
TAP	45	264	4
TAP	45	288	3
TAP	45	288	6
TAP	45	336	1
TAP	45	360	0
BRK	46	0	2
BRK	46	0	7
BRK	46	72	0
BRK	46	72	5
BRK	46	144	2
BRK	46	144	6
BRK	46	192	0
BRK	46	192	4
TAP	46	288	4
TAP	46	312	2
TAP	46	336	6
TAP	46	360	0
TAP	47	0	7
TAP	47	24	7
TAP	47	48	6
TAP	47	72	6
BRK	47	96	5
TAP	47	120	5
TAP	47	144	4
TAP	47	168	4
TAP	47	192	3
TAP	47	216	3
TAP	47	240	2
TAP	47	264	2
TAP	47	288	1
TAP	47	312	1
TAP	47	336	0
TAP	47	360	0
TAP	48	0	0
TAP	48	0	7
BRK	48	96	0
BRK	48	96	7
TAP	48	102	1
TAP	48	102	6
TAP	48	108	2
TAP	48	108	5
TAP	48	114	3
TAP	48	114	4
TAP	48	192	4
TAP	48	216	4
TAP	48	240	2
TAP	48	264	2
TAP	48	288	6
TAP	48	312	6
TAP	48	336	0
TAP	48	360	0
TAP	49	0	7
TAP	49	12	6
TAP	49	24	5
TAP	49	36	4
TAP	49	48	3
TAP	49	60	2
TAP	49	72	1
TAP	49	84	0
TAP	49	96	7
TAP	49	108	6
TAP	49	120	5
TAP	49	132	4
TAP	49	144	3
TAP	49	156	2
TAP	49	168	1
TAP	49	180	0
BRK	49	192	3
BRK	49	192	7
BRK	49	288	1
BRK	49	288	5
BRK	50	0	6
TAP	50	24	7
TAP	50	48	5
TAP	50	72	4
TAP	50	72	6
TAP	50	120	2
TAP	50	120	3
TAP	50	168	1
TAP	50	168	7
TAP	50	216	5
TAP	50	240	4
TAP	50	264	6
TAP	50	288	3
TAP	50	312	7
TAP	50	336	2
TAP	50	360	0
HLD	51	0	1	48
TAP	51	48	3
TAP	51	72	0
TAP	51	72	4
TAP	51	144	5
TAP	51	168	4
HLD	51	192	6	48
TAP	51	240	0
TAP	51	264	1
TAP	51	264	5
TAP	51	336	3
TAP	51	360	4
TAP	52	0	1
TAP	52	24	0
TAP	52	48	2
TAP	52	72	1
TAP	52	72	3
TAP	52	120	4
TAP	52	120	5
TAP	52	168	0
TAP	52	168	6
TAP	52	216	2
TAP	52	240	3
TAP	52	264	1
TAP	52	288	4
TAP	52	312	0
TAP	52	336	5
TAP	52	360	7
TAP	53	0	0
TAP	53	0	6
TAP	53	72	2
TAP	53	72	7
TAP	53	144	0
TAP	53	144	5
BRK	53	192	4
BRK	53	192	6
BST	53	288	6
SI_	53	288	6	96	36	2
BST	53	288	7
SI_	53	288	7	96	36	3
BST	54	0	6
SCL	54	0	6	96	288	7
BST	54	0	7
SCR	54	0	7	96	288	6

T_REC_TAP	468
T_REC_BRK	63
T_REC_XTP	0
T_REC_HLD	11
T_REC_XHO	0
T_REC_STR	63
T_REC_BST	4
T_REC_XST	0
T_REC_TTP	0
T_REC_THO	0
T_REC_SLD	67
T_REC_ALL	676
T_NUM_TAP	531
T_NUM_BRK	67
T_NUM_HLD	11
T_NUM_SLD	67
T_NUM_ALL	676
T_JUDGE_TAP	598
T_JUDGE_HLD	20
T_JUDGE_SLD	67
T_JUDGE_ALL	685
TTM_EACHPAIRS	102
TTM_SCR_TAP	265500
TTM_SCR_BRK	174200
TTM_SCR_HLD	11000
TTM_SCR_SLD	100500
TTM_SCR_ALL	551200
TTM_SCR_S	528200
TTM_SCR_SS	544500
TTM_RAT_ACV	10123

