VERSION	0.00.00	1.03.00
FES_MODE	0
BPM_DEF	120.000	120.000	120.000	120.000
MET_DEF	4	4
RESOLUTION	384
CLK_DEF	384
COMPATIBLE_CODE	MA2

BPM	0	0	120.000
MET	0	0	4	4

TAP	1	192	0
TAP	1	192	2
TAP	1	288	5
TAP	1	288	7
BST	2	0	1
SLR	2	0	1	96	96	7
BST	2	0	6
SLL	2	0	6	96	96	0
TAP	3	0	1
TAP	3	0	4
TAP	3	48	2
TAP	3	72	3
TAP	3	120	0
TAP	3	144	0
TAP	3	192	3
TAP	3	192	6
TAP	3	240	5
TAP	3	264	4
TAP	3	312	7
TAP	3	336	7
TAP	4	0	1
TAP	4	0	4
TAP	4	48	2
TAP	4	72	3
TAP	4	120	0
TAP	4	144	0
TAP	4	192	3
TAP	4	192	6
TAP	4	240	5
TAP	4	264	4
TAP	4	312	7
TAP	4	336	7
HLD	5	0	1	72
HLD	5	72	2	72
TAP	5	144	3
HLD	5	192	6	72
HLD	5	264	5	72
TAP	5	336	4
TAP	6	0	1
TAP	6	0	3
TAP	6	48	2
TAP	6	72	3
TAP	6	120	1
TAP	6	144	0
TAP	6	192	4
TAP	6	192	6
TAP	6	240	5
TAP	6	264	4
TAP	6	312	6
TAP	6	336	7
TAP	7	0	1
TAP	7	0	3
TAP	7	48	2
TAP	7	72	3
TAP	7	120	1
TAP	7	144	0
TAP	7	192	4
TAP	7	192	6
TAP	7	240	5
TAP	7	264	4
TAP	7	312	6
TAP	7	336	7
TAP	8	0	0
TAP	8	0	2
TAP	8	48	5
TAP	8	72	4
TAP	8	120	1
TAP	8	144	0
TAP	8	192	5
TAP	8	192	7
TAP	8	240	2
TAP	8	264	3
TAP	8	312	6
TAP	8	336	7
HLD	9	0	2	72
HLD	9	72	1	72
TAP	9	144	0
HLD	9	192	5	72
HLD	9	264	6	72
TAP	9	336	7
STR	10	0	0
SCR	10	0	0	96	192	7
TAP	11	0	0
TAP	11	0	7
TAP	11	72	0
TAP	11	72	7
TAP	11	144	1
TAP	11	144	6
STR	11	192	0
SI_	11	192	0	96	48	3
STR	11	192	7
SI_	11	192	7	96	48	4
TAP	12	0	1
TAP	12	0	4
TAP	12	48	2
TAP	12	72	3
TAP	12	96	2
TAP	12	120	3
TAP	12	144	1
TAP	12	192	3
TAP	12	192	6
TAP	12	240	5
TAP	12	264	4
TAP	12	288	5
TAP	12	312	4
TAP	12	336	6
TAP	13	0	1
TAP	13	0	4
TAP	13	48	2
TAP	13	72	3
TAP	13	96	2
TAP	13	120	3
TAP	13	144	0
TAP	13	192	3
TAP	13	192	6
TAP	13	240	5
TAP	13	264	4
TAP	13	288	5
TAP	13	312	4
TAP	13	336	7
TAP	14	0	1
TAP	14	0	6
TAP	14	48	0
TAP	14	72	7
TAP	14	96	0
TAP	14	120	7
TAP	14	144	0
TAP	14	192	2
TAP	14	192	7
TAP	14	240	1
TAP	14	264	0
TAP	14	288	1
TAP	14	312	0
TAP	14	336	2
TAP	15	0	0
TAP	15	0	5
TAP	15	48	6
TAP	15	72	7
TAP	15	96	6
TAP	15	120	7
TAP	15	144	5
STR	15	192	0
SCL	15	192	0	96	48	5
STR	15	192	1
SCR	15	192	1	96	48	4
TAP	16	0	3
TAP	16	0	6
TAP	16	48	5
TAP	16	72	4
TAP	16	96	6
TAP	16	120	3
TAP	16	144	7
TAP	16	192	1
TAP	16	192	4
TAP	16	240	2
TAP	16	264	3
TAP	16	288	1
TAP	16	312	4
TAP	16	336	0
TAP	17	0	3
TAP	17	0	6
TAP	17	48	5
TAP	17	72	4
TAP	17	96	6
TAP	17	120	3
TAP	17	144	7
TAP	17	192	1
TAP	17	192	4
TAP	17	240	2
TAP	17	264	3
TAP	17	288	1
TAP	17	312	4
TAP	17	336	0
TAP	18	0	2
TAP	18	0	7
TAP	18	48	1
TAP	18	72	0
TAP	18	96	2
TAP	18	120	7
TAP	18	144	3
TAP	18	192	0
TAP	18	192	5
TAP	18	240	6
TAP	18	264	7
TAP	18	288	5
TAP	18	312	0
TAP	18	336	4
TAP	19	0	0
TAP	19	24	0
TAP	19	48	7
TAP	19	72	7
TAP	19	120	0
TAP	19	120	1
STR	19	168	6
SCL	19	168	6	96	48	3
STR	19	168	7
SCR	19	168	7	96	48	2
HLD	20	0	1	72
HLD	20	72	2	72
TAP	20	144	3
HLD	20	192	6	72
HLD	20	264	5	72
TAP	20	336	4
HLD	21	0	0	72
HLD	21	72	2	72
TAP	21	144	3
HLD	21	192	7	72
HLD	21	264	5	72
TAP	21	336	4
HLD	22	0	0	72
HLD	22	72	2	72
TAP	22	144	4
HLD	22	192	7	72
HLD	22	264	5	72
TAP	22	336	3
TAP	23	0	0
TAP	23	0	2
TAP	23	72	5
TAP	23	72	7
TAP	23	144	3
TAP	23	144	4
TAP	23	192	3
TAP	23	192	4
TAP	23	288	0
TAP	23	288	7
TAP	23	336	1
TAP	23	336	6
HLD	24	0	2	72
TAP	24	0	3
TAP	24	72	1
TAP	24	144	0
TAP	24	144	7
TAP	24	192	4
HLD	24	192	5	72
TAP	24	264	6
TAP	24	336	0
TAP	24	336	7
TAP	25	0	2
HLD	25	0	3	72
TAP	25	72	4
TAP	25	144	0
TAP	25	144	7
HLD	25	192	4	72
TAP	25	192	5
TAP	25	264	3
TAP	25	336	0
TAP	25	336	7
TAP	26	0	2
HLD	26	0	3	72
TAP	26	72	5
TAP	26	144	0
TAP	26	144	1
HLD	26	192	4	72
TAP	26	192	5
TAP	26	264	2
TAP	26	336	6
TAP	26	336	7
TAP	27	0	1
TAP	27	0	3
TAP	27	72	4
TAP	27	72	6
TAP	27	144	3
TAP	27	144	4
TAP	27	192	3
TAP	27	192	4
TAP	27	288	0
TAP	27	288	7
TAP	27	336	1
TAP	27	336	6
STR	28	0	0
SLR	28	0	0	96	96	4
STR	28	192	7
SLL	28	192	7	96	96	3
TAP	29	0	1
TAP	29	48	5
TAP	29	72	4
TAP	29	120	0
TAP	29	120	1
TAP	29	144	0
TAP	29	144	1
TAP	29	192	6
TAP	29	240	2
TAP	29	264	3
TAP	29	312	6
TAP	29	312	7
TAP	29	336	6
TAP	29	336	7
TAP	30	0	2
TAP	30	0	3
TAP	30	48	5
TAP	30	72	4
TAP	30	120	0
TAP	30	120	1
TAP	30	144	0
TAP	30	144	1
TAP	30	192	4
TAP	30	192	5
TAP	30	240	2
TAP	30	264	3
TAP	30	312	6
TAP	30	312	7
TAP	30	336	6
TAP	30	336	7
TAP	31	0	2
TAP	31	0	3
TAP	31	48	1
TAP	31	48	4
TAP	31	96	4
TAP	31	96	5
TAP	31	144	3
TAP	31	144	6
TAP	31	192	0
TAP	31	192	1
TAP	31	240	3
TAP	31	240	6
TAP	31	288	6
TAP	31	288	7
TAP	31	336	1
TAP	31	336	4
TAP	32	0	0
TAP	32	0	7
TAP	32	48	5
TAP	32	48	6
TAP	32	96	1
TAP	32	96	2
TAP	32	144	3
TAP	32	144	4
BST	32	192	0
SCR	32	192	0	96	48	3
BST	32	192	7
SCL	32	192	7	96	48	4
HLD	33	0	2	96
STR	33	0	4
SCR	33	0	4	96	48	7
STR	33	144	1
SI_	33	144	1	96	48	3
STR	33	192	0
SI_	33	192	0	96	48	4
STR	33	336	3
SI_	33	336	3	96	48	7
STR	34	0	4
SI_	34	0	4	96	48	6
TAP	34	192	0
TAP	34	216	7
TAP	34	240	0
TAP	34	264	7
TAP	34	312	1
TAP	34	312	6
HLD	35	0	2	96
STR	35	0	7
SCL	35	0	7	96	48	4
TAP	35	144	2
TAP	35	168	3
STR	35	192	2
SI_	35	192	2	96	48	0
TAP	35	264	6
STR	35	336	7
SI_	35	336	7	96	48	5
STR	36	0	0
SI_	36	0	0	96	48	4
TAP	36	192	5
TAP	36	216	4
TAP	36	240	6
TAP	36	264	3
TAP	36	312	4
TAP	36	312	5
STR	37	0	3
SCL	37	0	3	96	48	0
HLD	37	0	6	96
STR	37	144	6
SSL	37	144	6	96	96	2
TAP	37	168	7
TAP	37	192	6
TAP	38	0	1
TAP	38	0	3
TAP	38	72	4
TAP	38	72	6
TAP	38	144	0
TAP	38	144	7
STR	38	192	0
SI_	38	192	0	96	48	4
STR	38	192	7
SI_	38	192	7	96	48	3
TAP	39	0	4
TAP	39	0	5
TAP	39	96	1
TAP	39	96	2
HLD	39	192	6	72
HLD	39	264	5	72
TAP	39	336	4
STR	40	0	3
SXL	40	0	3	96	48	5
SXR	40	0	3	96	48	1
TAP	40	192	0
TAP	40	216	7
TAP	40	240	2
TAP	40	264	5
TAP	40	312	0
TAP	40	312	7
STR	41	0	3
SCL	41	0	3	96	48	0
HLD	41	0	5	96
STR	41	144	6
SI_	41	144	6	96	48	4
STR	41	192	7
SI_	41	192	7	96	48	3
STR	41	324	4
SI_	41	324	4	96	48	0
STR	42	0	3
SI_	42	0	3	96	48	1
TAP	42	192	7
TAP	42	216	0
TAP	42	240	7
TAP	42	264	0
TAP	42	312	1
TAP	42	312	6
STR	43	0	0
SCR	43	0	0	96	48	3
HLD	43	0	5	96
TAP	43	144	5
TAP	43	168	4
STR	43	192	5
SI_	43	192	5	96	48	7
TAP	43	264	1
STR	43	336	0
SI_	43	336	0	96	48	2
STR	44	0	7
SI_	44	0	7	96	48	3
TAP	44	192	2
TAP	44	216	3
TAP	44	240	1
TAP	44	264	4
TAP	44	312	2
TAP	44	312	3
HLD	45	0	1	96
STR	45	0	4
SCR	45	0	4	96	48	7
STR	45	144	1
SSR	45	144	1	96	96	5
TAP	45	168	0
TAP	45	192	1
TAP	46	0	4
TAP	46	0	6
TAP	46	72	1
TAP	46	72	3
TAP	46	144	0
TAP	46	144	7
STR	46	192	2
SI_	46	192	2	96	48	7
STR	46	192	5
SI_	46	192	5	96	48	0
TAP	47	0	2
TAP	47	0	3
TAP	47	96	5
TAP	47	96	6
TAP	47	192	0
HLD	47	192	1	72
HLD	47	264	2	72
TAP	47	336	3
STR	48	0	4
SXL	48	0	4	96	48	6
SXR	48	0	4	96	48	2
TAP	48	192	1
TAP	48	192	2
TAP	48	264	5
TAP	48	264	6
TAP	48	336	0
TAP	48	336	7
STR	49	0	0
SF_	49	0	0	96	48	4
TAP	49	0	7
TAP	49	192	4
TAP	49	192	5
TAP	49	288	1
TAP	49	288	2
BST	50	0	0
SLR	50	0	0	96	96	6
BST	50	0	5
SLL	50	0	5	96	96	7
TAP	51	0	5
TAP	51	24	4
TAP	51	48	5
TAP	51	72	4
TAP	51	120	1
TAP	51	120	7
TAP	51	144	1
TAP	51	144	7
TAP	51	192	2
TAP	51	216	3
TAP	51	240	2
TAP	51	264	3
TAP	51	312	0
TAP	51	312	6
TAP	51	336	0
TAP	51	336	6
TAP	52	0	5
TAP	52	24	4
TAP	52	48	6
TAP	52	72	3
TAP	52	120	0
TAP	52	120	7
TAP	52	144	0
TAP	52	144	7
TAP	52	192	2
TAP	52	216	3
TAP	52	240	1
TAP	52	264	4
TAP	52	312	0
TAP	52	312	7
TAP	52	336	0
TAP	52	336	7
TAP	53	0	4
TAP	53	0	6
TAP	53	72	1
TAP	53	72	3
TAP	53	144	0
TAP	53	144	7
TAP	53	192	2
TAP	53	192	3
TAP	53	288	5
TAP	53	288	6
BST	54	0	2
SLR	54	0	2	96	288	0
BST	54	0	7
SLL	54	0	7	96	288	1

T_REC_TAP	395
T_REC_BRK	0
T_REC_XTP	0
T_REC_HLD	36
T_REC_XHO	0
T_REC_STR	38
T_REC_BST	8
T_REC_XST	0
T_REC_TTP	0
T_REC_THO	0
T_REC_SLD	48
T_REC_ALL	525
T_NUM_TAP	433
T_NUM_BRK	8
T_NUM_HLD	36
T_NUM_SLD	48
T_NUM_ALL	525
T_JUDGE_TAP	441
T_JUDGE_HLD	72
T_JUDGE_SLD	48
T_JUDGE_ALL	561
TTM_EACHPAIRS	125
TTM_SCR_TAP	216500
TTM_SCR_BRK	20800
TTM_SCR_HLD	36000
TTM_SCR_SLD	72000
TTM_SCR_ALL	345300
TTM_SCR_S	334200
TTM_SCR_SS	344500
TTM_RAT_ACV	10023

