VERSION	0.00.00	1.03.00
FES_MODE	0
BPM_DEF	120.000	120.000	120.000	120.000
MET_DEF	4	4
RESOLUTION	384
CLK_DEF	384
COMPATIBLE_CODE	MA2

BPM	0	0	120.000
MET	0	0	4	4

STR	2	0	1
SXR	2	0	1	96	216	5
STR	3	0	6
SXL	3	0	6	96	216	2
STR	4	0	0
SUR	4	0	0	96	192	3
STR	5	0	4
SUR	5	0	4	96	192	7
TAP	6	0	0
TAP	6	96	0
TAP	6	96	7
TAP	6	192	2
TAP	6	288	2
TAP	6	288	3
TAP	7	0	5
TAP	7	96	4
TAP	7	96	5
TAP	7	192	1
TAP	7	192	6
TAP	7	288	1
TAP	7	288	6
TAP	8	0	7
TAP	8	96	0
TAP	8	96	7
TAP	8	192	5
TAP	8	288	4
TAP	8	288	5
TAP	9	0	2
TAP	9	96	2
TAP	9	96	3
TAP	9	192	1
TAP	9	192	6
TAP	9	288	1
TAP	9	288	6
STR	10	0	5
SCR	10	0	5	96	192	2
TAP	11	0	3
TAP	11	0	4
TAP	11	96	2
TAP	11	96	5
STR	11	192	1
SCR	11	192	1	96	48	3
STR	11	192	6
SCL	11	192	6	96	48	4
HLD	12	0	2	96
TAP	12	96	3
HLD	12	192	5	96
TAP	12	288	4
TAP	13	0	2
TAP	13	0	3
TAP	13	96	0
TAP	13	96	1
TAP	13	192	2
TAP	13	192	7
HLD	14	0	6	96
TAP	14	96	7
HLD	14	192	1	96
TAP	14	288	0
HLD	15	0	5	96
HLD	15	96	4	96
HLD	15	192	3	96
TAP	15	288	2
HLD	16	0	5	96
TAP	16	96	4
HLD	16	192	2	96
TAP	16	288	3
TAP	17	0	4
TAP	17	0	5
TAP	17	96	6
TAP	17	96	7
TAP	17	192	0
TAP	17	192	5
HLD	18	0	1	96
TAP	18	96	0
HLD	18	192	6	96
TAP	18	288	7
STR	19	0	2
SCL	19	0	2	96	192	5
HLD	20	0	4	72
TAP	20	72	3
HLD	20	192	2	72
TAP	20	264	3
HLD	21	0	5	72
TAP	21	72	4
HLD	21	192	3	72
TAP	21	264	4
HLD	22	0	6	72
TAP	22	72	7
HLD	22	192	1	72
TAP	22	264	0
HLD	23	0	7	72
TAP	23	72	0
STR	23	192	0
SI_	23	192	0	96	48	2
STR	23	192	7
SI_	23	192	7	96	48	5
HLD	24	0	3	72
TAP	24	72	4
HLD	24	192	5	72
TAP	24	264	4
HLD	25	0	2	72
TAP	25	72	3
HLD	25	192	4	72
TAP	25	264	3
HLD	26	0	1	72
TAP	26	72	0
HLD	26	192	6	72
TAP	26	264	7
HLD	27	0	0	72
TAP	27	72	7
STR	27	192	1
SI_	27	192	1	96	48	3
STR	27	192	6
SI_	27	192	6	96	48	4
STR	28	0	2
SCL	28	0	2	96	48	0
STR	28	192	5
SCR	28	192	5	96	48	7
TAP	29	0	1
TAP	29	96	2
TAP	29	192	3
TAP	29	288	4
TAP	29	288	5
TAP	30	0	6
TAP	30	96	5
TAP	30	192	4
TAP	30	288	2
TAP	30	288	3
TAP	31	0	1
TAP	31	96	0
TAP	31	192	7
TAP	31	288	1
TAP	31	288	6
TAP	32	0	2
TAP	32	0	5
TAP	32	96	3
TAP	32	96	4
BRK	32	192	1
BRK	32	192	6
TAP	33	0	0
TAP	33	96	1
TAP	33	96	7
TAP	33	192	6
TAP	33	288	5
TAP	33	288	7
TAP	34	0	3
TAP	34	0	4
TAP	34	96	1
TAP	34	96	6
TAP	34	192	0
TAP	34	240	0
TAP	34	288	0
TAP	34	288	7
TAP	35	0	7
TAP	35	96	0
TAP	35	96	6
TAP	35	192	1
TAP	35	288	0
TAP	35	288	2
TAP	36	0	3
TAP	36	0	4
TAP	36	96	1
TAP	36	96	6
TAP	36	192	7
TAP	36	240	7
TAP	36	288	0
TAP	36	288	7
TAP	37	0	2
TAP	37	0	3
TAP	37	96	1
TAP	37	96	4
TAP	37	192	4
TAP	37	192	5
TAP	37	288	3
TAP	37	288	6
TAP	38	0	3
TAP	38	0	4
TAP	38	96	2
TAP	38	96	5
TAP	38	192	1
TAP	38	192	6
TAP	38	288	0
TAP	38	288	7
STR	39	0	1
SI_	39	0	1	96	72	5
STR	39	192	6
SI_	39	192	6	96	72	2
STR	40	0	0
SI_	40	0	0	96	72	4
TAP	40	192	7
TAP	40	288	0
TAP	40	288	7
TAP	41	0	2
TAP	41	0	3
BRK	41	96	0
BRK	41	96	5
TAP	41	192	6
TAP	41	240	6
TAP	41	288	6
TAP	41	288	7
TAP	42	0	1
TAP	42	48	1
TAP	42	96	0
TAP	42	96	1
TAP	42	192	7
TAP	42	240	7
TAP	42	288	0
TAP	42	288	7
TAP	43	0	4
TAP	43	0	5
BRK	43	96	2
BRK	43	96	7
TAP	43	192	1
TAP	43	240	1
TAP	43	288	0
TAP	43	288	1
TAP	44	0	6
TAP	44	48	6
TAP	44	96	6
TAP	44	96	7
TAP	44	192	0
TAP	44	240	0
TAP	44	288	0
TAP	44	288	7
TAP	45	0	3
TAP	45	0	4
BRK	45	96	1
BRK	45	96	6
TAP	45	192	0
TAP	45	192	7
TAP	45	240	0
TAP	45	240	7
TAP	45	288	0
TAP	45	288	7
HLD	46	0	1	96
HLD	46	96	3	96
HLD	46	192	4	96
TAP	46	288	6
TAP	47	0	2
TAP	47	0	5
BRK	47	96	0
BRK	47	96	7
TAP	47	192	2
TAP	47	192	3
TAP	47	288	4
TAP	47	288	5
TAP	48	0	1
TAP	48	0	3
TAP	48	96	4
TAP	48	96	6
TAP	48	192	0
TAP	48	192	7
STR	48	288	1
SUR	48	288	1	96	120	6
STR	49	192	0
SI_	49	192	0	96	48	3
STR	49	192	7
SI_	49	192	7	96	48	4
HLD	50	0	2	96
TAP	50	96	0
HLD	50	192	5	96
TAP	50	288	7
TAP	51	0	1
TAP	51	48	0
TAP	51	96	1
TAP	51	192	6
TAP	51	240	7
TAP	51	288	6
HLD	52	0	1	96
TAP	52	96	3
HLD	52	192	6	96
TAP	52	288	4
TAP	53	0	0
TAP	53	48	7
TAP	53	96	0
TAP	53	144	7
TAP	53	192	0
BST	53	288	3
SXR	53	288	3	96	384	0
BST	53	288	4
SXL	53	288	4	96	384	7

T_REC_TAP	195
T_REC_BRK	10
T_REC_XTP	0
T_REC_HLD	32
T_REC_XHO	0
T_REC_STR	20
T_REC_BST	2
T_REC_XST	0
T_REC_TTP	0
T_REC_THO	0
T_REC_SLD	22
T_REC_ALL	281
T_NUM_TAP	215
T_NUM_BRK	12
T_NUM_HLD	32
T_NUM_SLD	22
T_NUM_ALL	281
T_JUDGE_TAP	227
T_JUDGE_HLD	64
T_JUDGE_SLD	22
T_JUDGE_ALL	313
TTM_EACHPAIRS	70
TTM_SCR_TAP	107500
TTM_SCR_BRK	31200
TTM_SCR_HLD	32000
TTM_SCR_SLD	33000
TTM_SCR_ALL	203700
TTM_SCR_S	196450
TTM_SCR_SS	202500
TTM_RAT_ACV	10059

