VERSION	0.00.00	1.03.00
FES_MODE	0
BPM_DEF	145.000	145.000	145.000	145.000
MET_DEF	4	4
RESOLUTION	384
CLK_DEF	384
COMPATIBLE_CODE	MA2

BPM	0	0	145.000
MET	0	0	4	4

BST	1	0	3
SXR	1	0	3	96	672	0
BST	1	0	4
SXL	1	0	4	96	672	7
TAP	5	0	3
TAP	5	0	4
TAP	5	48	2
TAP	5	96	3
TAP	5	96	4
TAP	5	144	5
TAP	5	192	3
TAP	5	192	4
TAP	5	240	2
TAP	5	288	3
TAP	5	288	4
TAP	5	336	5
TAP	6	0	3
TAP	6	0	4
TAP	6	48	1
TAP	6	96	3
TAP	6	96	4
TAP	6	144	6
TAP	6	192	3
TAP	6	192	4
TAP	6	240	1
TAP	6	288	3
TAP	6	288	4
TAP	6	336	6
TAP	7	0	3
TAP	7	0	4
TAP	7	48	0
TAP	7	96	3
TAP	7	96	4
TAP	7	144	7
TAP	7	192	3
TAP	7	192	4
TAP	7	240	0
TAP	7	288	3
TAP	7	288	4
TAP	7	336	7
TAP	8	0	3
TAP	8	0	4
TAP	8	96	3
TAP	8	96	5
TAP	8	192	1
TAP	8	192	4
BRK	8	288	2
BRK	8	288	6
TAP	9	0	6
TAP	9	0	7
TAP	9	48	0
TAP	9	48	5
TAP	9	96	2
TAP	9	120	3
TAP	9	168	3
TAP	9	216	3
TAP	9	264	2
TAP	9	264	4
TAP	9	288	3
TAP	9	312	5
TAP	9	336	1
TAP	10	0	0
TAP	10	0	1
TAP	10	48	2
TAP	10	48	7
TAP	10	96	5
TAP	10	120	4
TAP	10	168	4
TAP	10	216	4
TAP	10	264	3
TAP	10	264	5
TAP	10	288	4
TAP	10	312	2
TAP	10	336	6
TAP	11	0	6
TAP	11	0	7
TAP	11	48	0
TAP	11	48	5
TAP	11	96	2
TAP	11	120	3
TAP	11	168	3
TAP	11	216	3
TAP	11	264	2
TAP	11	264	4
TAP	11	288	3
TAP	11	312	5
TAP	11	336	1
TAP	12	0	3
TAP	12	0	4
TAP	12	48	5
TAP	12	48	7
TAP	12	96	3
TAP	12	96	4
TAP	12	144	0
TAP	12	144	2
STR	12	192	3
SI_	12	192	3	96	48	6
STR	12	192	4
SI_	12	192	4	96	48	1
TAP	12	240	2
TAP	12	240	5
TAP	13	0	4
TAP	13	24	3
TAP	13	48	5
TAP	13	72	4
TAP	13	96	3
TAP	13	96	6
TAP	13	144	3
TAP	13	168	4
TAP	13	192	2
TAP	13	216	3
TAP	13	240	1
TAP	13	240	4
TAP	13	288	4
TAP	13	312	3
TAP	13	336	5
TAP	13	360	4
TAP	14	0	3
TAP	14	0	6
TAP	14	48	3
TAP	14	72	4
TAP	14	96	2
TAP	14	120	3
TAP	14	144	1
TAP	14	144	4
STR	14	192	4
SSL	14	192	4	96	72	0
TAP	14	216	3
TAP	14	240	5
TAP	14	264	4
TAP	14	288	6
TAP	15	0	3
TAP	15	24	4
TAP	15	48	2
TAP	15	72	3
TAP	15	96	1
TAP	15	96	4
TAP	15	144	4
TAP	15	168	3
TAP	15	192	5
TAP	15	216	4
TAP	15	240	3
TAP	15	240	6
TAP	15	288	3
TAP	15	312	4
TAP	15	336	2
TAP	15	360	3
STR	16	0	1
SI_	16	0	1	96	48	4
TAP	16	0	4
STR	16	96	6
SI_	16	96	6	96	48	3
BRK	16	192	0
BRK	16	240	1
BRK	16	288	2
BRK	16	336	3
TAP	17	48	4
TAP	17	48	5
TAP	17	72	3
TAP	17	72	6
TAP	17	120	2
TAP	17	120	3
TAP	17	144	1
TAP	17	144	4
TAP	17	192	3
TAP	17	216	4
TAP	17	240	2
TAP	17	264	5
TAP	17	288	1
TAP	17	312	4
TAP	17	336	3
HLD	18	0	1	96
TAP	18	0	3
TAP	18	96	7
TAP	18	168	4
TAP	18	168	5
TAP	18	192	4
TAP	18	192	5
TAP	18	240	4
TAP	18	240	6
TAP	18	288	3
TAP	18	288	7
TAP	18	336	4
TAP	18	336	5
TAP	19	0	4
HLD	19	0	6	96
TAP	19	96	0
TAP	19	168	2
TAP	19	168	3
TAP	19	192	2
TAP	19	192	3
TAP	19	240	1
TAP	19	240	3
TAP	19	288	0
TAP	19	288	4
TAP	19	336	2
TAP	19	336	3
HLD	20	0	1	96
TAP	20	0	3
TAP	20	96	7
TAP	20	168	4
TAP	20	168	5
TAP	20	192	4
TAP	20	192	5
TAP	20	240	4
TAP	20	240	6
TAP	20	288	3
TAP	20	288	7
TAP	20	336	4
TAP	20	336	5
TAP	21	0	0
TAP	21	0	7
TAP	21	48	1
TAP	21	48	6
TAP	21	96	2
TAP	21	96	5
TAP	21	144	3
TAP	21	144	4
TAP	21	168	3
TAP	21	168	4
TAP	21	216	4
TAP	21	216	6
TAP	21	264	1
TAP	21	264	3
TAP	21	288	1
TAP	21	288	3
TAP	21	336	2
TAP	21	336	5
HLD	22	0	1	96
TAP	22	0	3
TAP	22	48	5
TAP	22	96	7
TAP	22	144	3
TAP	22	144	4
TAP	22	168	3
TAP	22	168	4
TAP	22	216	6
TAP	22	216	7
TAP	22	264	0
TAP	22	264	4
TAP	22	312	2
TAP	22	312	3
TAP	22	336	2
TAP	22	336	3
TAP	23	0	4
HLD	23	0	6	96
TAP	23	48	2
TAP	23	96	0
TAP	23	144	4
TAP	23	168	3
TAP	23	192	4
TAP	23	240	2
TAP	23	240	5
TAP	23	264	2
TAP	23	264	5
TAP	23	312	3
TAP	23	312	4
TAP	23	336	3
TAP	23	336	4
HLD	24	0	2	96
TAP	24	0	4
TAP	24	48	6
TAP	24	96	0
TAP	24	144	3
TAP	24	168	4
TAP	24	192	3
TAP	24	240	1
TAP	24	240	6
TAP	24	264	1
TAP	24	264	6
TAP	24	312	3
TAP	24	312	4
TAP	24	336	3
TAP	24	336	4
TAP	25	0	0
TAP	25	0	7
TAP	25	48	1
TAP	25	48	6
TAP	25	96	2
TAP	25	96	5
TAP	25	144	3
TAP	25	144	4
TAP	25	168	3
TAP	25	168	4
TAP	25	216	1
TAP	25	216	3
TAP	25	264	4
TAP	25	264	6
TAP	25	288	4
TAP	25	288	6
TAP	25	336	2
TAP	25	336	5
TAP	26	0	2
TAP	26	0	3
TAP	26	48	1
TAP	26	48	4
TAP	26	96	6
TAP	26	120	7
TAP	26	168	7
TAP	26	216	7
TAP	26	264	0
TAP	26	264	6
TAP	26	288	7
TAP	26	312	1
TAP	26	336	5
TAP	27	0	4
TAP	27	0	5
TAP	27	48	3
TAP	27	48	6
TAP	27	96	1
TAP	27	120	0
TAP	27	168	0
TAP	27	216	0
TAP	27	264	1
TAP	27	264	7
TAP	27	288	0
TAP	27	312	6
TAP	27	336	2
TAP	28	0	2
TAP	28	0	3
TAP	28	48	1
TAP	28	48	4
TAP	28	96	6
TAP	28	120	7
TAP	28	168	7
TAP	28	216	7
TAP	28	264	0
TAP	28	264	6
TAP	28	288	7
TAP	28	312	1
TAP	28	336	5
TAP	29	0	0
TAP	29	0	7
TAP	29	48	1
TAP	29	48	3
TAP	29	96	0
TAP	29	96	7
TAP	29	144	4
TAP	29	144	6
TAP	29	192	0
TAP	29	192	7
TAP	29	240	1
TAP	29	240	6
TAP	29	288	2
TAP	29	288	5
STR	29	336	3
SI_	29	336	3	96	48	7
TAP	29	336	4
TAP	30	0	3
TAP	30	0	4
TAP	30	96	5
TAP	30	120	5
TAP	30	144	4
HLD	30	168	6	48
TAP	30	216	2
TAP	30	240	3
TAP	30	264	1
STR	30	288	4
SI_	30	288	4	96	48	0
TAP	30	336	4
TAP	31	0	3
TAP	31	96	2
TAP	31	120	3
TAP	31	144	1
TAP	31	168	5
TAP	31	192	4
TAP	31	216	6
TAP	31	240	3
TAP	31	264	4
STR	31	288	3
SI_	31	288	3	96	48	7
TAP	31	336	3
STR	32	0	4
SI_	32	0	4	96	48	0
TAP	32	48	4
STR	32	96	3
SUL	32	96	3	96	96	1
TAP	32	144	3
TAP	32	192	4
TAP	32	336	5
TAP	33	0	5
TAP	33	48	4
TAP	33	48	6
TAP	33	96	2
TAP	33	144	1
TAP	33	144	3
TAP	33	192	3
TAP	33	192	4
TAP	33	240	7
BRK	33	264	7
TAP	33	336	0
TAP	33	336	2
BRK	34	0	1
TAP	34	48	6
TAP	34	48	7
BRK	34	72	6
TAP	34	120	2
TAP	34	120	3
STR	34	144	2
SCL	34	144	2	96	48	7
STR	34	144	3
SCR	34	144	3	96	48	6
TAP	34	192	2
TAP	34	192	3
TAP	34	336	5
TAP	35	0	4
TAP	35	0	6
TAP	35	48	2
TAP	35	96	1
TAP	35	96	3
TAP	35	144	3
TAP	35	144	4
TAP	35	192	3
TAP	35	192	4
TAP	35	240	0
BRK	35	264	0
TAP	35	336	5
TAP	35	336	7
BRK	36	0	6
TAP	36	48	0
TAP	36	48	1
BRK	36	72	1
TAP	36	120	4
TAP	36	120	5
STR	36	144	4
SCL	36	144	4	96	48	1
STR	36	144	5
SCR	36	144	5	96	48	0
TAP	36	192	4
TAP	36	192	5
TAP	36	336	2
TAP	37	0	1
TAP	37	0	3
TAP	37	48	5
TAP	37	96	4
TAP	37	96	6
TAP	37	144	3
TAP	37	144	4
TAP	37	192	3
TAP	37	192	4
TAP	37	240	7
BRK	37	264	7
TAP	37	336	3
TAP	37	336	4
STR	38	0	2
SI_	38	0	2	96	48	7
TAP	38	48	2
STR	38	96	5
SXL	38	96	5	96	96	0
TAP	38	144	5
TAP	38	192	3
TAP	38	240	2
TAP	38	288	1
TAP	38	336	3
TAP	38	336	4
STR	39	0	5
SI_	39	0	5	96	48	0
TAP	39	48	5
STR	39	96	2
SXR	39	96	2	96	96	7
TAP	39	144	2
TAP	39	192	4
TAP	39	240	5
TAP	39	288	6
TAP	39	336	3
TAP	39	336	4
STR	40	0	2
SI_	40	0	2	96	48	7
TAP	40	48	2
STR	40	96	5
SXL	40	96	5	96	96	0
TAP	40	144	5
TAP	40	192	3
TAP	40	240	2
TAP	40	288	1
TAP	40	336	3
TAP	40	336	4
TAP	41	0	5
TAP	41	48	3
TAP	41	48	4
TAP	41	96	2
TAP	41	144	3
TAP	41	144	4
TAP	41	192	0
TAP	41	192	7
TAP	41	240	1
TAP	41	240	6
STR	41	288	2
SI_	41	288	2	96	96	6
STR	41	288	5
SI_	41	288	5	96	96	1
HLD	42	192	0	84
HLD	42	192	7	84
TAP	42	288	0
TAP	42	288	7
STR	43	0	0
SI_	43	0	0	96	48	4
TAP	43	0	7
TAP	43	48	2
TAP	43	96	0
STR	43	96	7
SI_	43	96	7	96	48	5
TAP	43	144	6
STR	43	192	0
SI_	43	192	0	96	48	4
TAP	43	192	7
TAP	43	240	2
TAP	43	288	0
STR	43	288	7
SI_	43	288	7	96	48	3
TAP	43	336	5
STR	44	0	0
SI_	44	0	0	96	48	2
TAP	44	0	7
TAP	44	48	1
TAP	44	96	0
STR	44	96	7
SI_	44	96	7	96	48	3
TAP	44	144	5
STR	44	192	0
SI_	44	192	0	96	48	4
TAP	44	192	7
TAP	44	240	2
TAP	44	288	0
STR	44	288	7
SI_	44	288	7	96	48	5
TAP	44	336	6
STR	45	0	0
SI_	45	0	0	96	48	4
TAP	45	0	7
TAP	45	48	2
TAP	45	96	0
STR	45	96	7
SI_	45	96	7	96	48	3
TAP	45	144	5
STR	45	192	0
SI_	45	192	0	96	48	2
TAP	45	192	7
TAP	45	240	1
TAP	45	288	0
STR	45	288	7
SI_	45	288	7	96	48	3
TAP	45	336	5
TAP	46	0	0
TAP	46	0	7
BRK	46	96	1
BRK	46	96	6
TAP	46	192	3
TAP	46	192	4
TAP	46	240	5
TAP	46	264	2
TAP	46	288	6
TAP	46	312	1
TAP	46	336	7
TAP	46	360	0
STR	47	0	6
SI_	47	0	6	96	48	4
TAP	47	0	7
TAP	47	48	5
STR	47	96	0
SI_	47	96	0	96	48	4
TAP	47	96	6
TAP	47	144	2
TAP	47	192	0
STR	47	192	6
SI_	47	192	6	96	48	2
TAP	47	240	5
TAP	47	288	6
TAP	47	288	7
TAP	48	0	0
STR	48	0	1
SI_	48	0	1	96	48	3
TAP	48	48	2
TAP	48	96	1
STR	48	96	7
SI_	48	96	7	96	48	3
TAP	48	144	5
STR	48	192	1
SI_	48	192	1	96	48	5
TAP	48	192	7
TAP	48	240	2
TAP	48	288	0
TAP	48	288	1
TAP	49	0	0
STR	49	0	7
SI_	49	0	7	96	48	3
TAP	49	48	5
STR	49	96	0
SI_	49	96	0	96	48	2
TAP	49	96	7
TAP	49	144	1
TAP	49	192	0
STR	49	192	7
SI_	49	192	7	96	48	3
TAP	49	240	5
STR	49	288	0
SI_	49	288	0	96	48	4
TAP	49	288	7
TAP	49	336	2
TAP	50	0	0
STR	50	0	7
SI_	50	0	7	96	48	5
TAP	50	48	6
STR	50	96	0
SI_	50	96	0	96	48	4
TAP	50	96	7
TAP	50	144	2
TAP	50	192	0
STR	50	192	7
SI_	50	192	7	96	48	3
TAP	50	240	5
STR	50	288	0
SI_	50	288	0	96	48	2
TAP	50	288	7
TAP	50	336	1
TAP	51	0	0
STR	51	0	7
SI_	51	0	7	96	48	3
TAP	51	48	5
STR	51	96	0
SI_	51	96	0	96	48	4
TAP	51	96	7
TAP	51	144	2
TAP	51	192	0
STR	51	192	7
SI_	51	192	7	96	48	5
TAP	51	240	6
STR	51	288	0
SI_	51	288	0	96	48	4
TAP	51	288	7
TAP	51	336	2
TAP	52	0	0
TAP	52	0	7
BRK	52	96	1
BRK	52	96	6
TAP	52	168	4
HLD	52	192	4	96
HLD	52	288	5	96
HLD	53	0	4	72
TAP	53	72	3
HLD	53	96	3	96
HLD	53	192	2	96
HLD	53	288	3	96
HLD	54	0	4	72
TAP	54	72	6
HLD	54	96	6	96
TAP	54	192	4
TAP	54	240	4
TAP	54	288	3
TAP	54	336	3
TAP	55	0	1
TAP	55	48	1
TAP	55	96	3
TAP	55	144	3
TAP	55	192	4
TAP	55	288	2
TAP	55	288	5
HLD	56	0	1	48
HLD	56	0	3	48
HLD	56	96	5	48
HLD	56	96	7	48
HLD	56	192	0	48
HLD	56	192	2	48
HLD	56	288	4	48
HLD	56	288	6	48
TAP	57	0	1
STR	57	0	3
SF_	57	0	3	96	192	7
TAP	58	0	5
TAP	58	32	4
TAP	58	64	6
TAP	58	96	2
TAP	58	128	3
TAP	58	160	1
TAP	58	192	6
TAP	58	224	7
TAP	58	256	5
TAP	58	288	1
TAP	58	320	0
TAP	58	352	2
TAP	59	0	1
STR	59	0	6
SCL	59	0	6	96	48	3
TAP	59	48	7
STR	59	96	0
SI_	59	96	0	96	48	4
TAP	59	96	6
TAP	59	144	2
TAP	59	192	0
STR	59	192	7
SI_	59	192	7	96	48	3
TAP	59	240	5
STR	59	288	1
SCR	59	288	1	96	48	4
TAP	59	288	7
TAP	59	336	0
TAP	60	0	1
STR	60	0	7
SI_	60	0	7	96	48	3
TAP	60	48	5
STR	60	96	0
SI_	60	96	0	96	48	4
TAP	60	96	7
TAP	60	144	2
TAP	60	192	0
STR	60	192	6
SCL	60	192	6	96	48	3
TAP	60	240	7
STR	60	288	0
SI_	60	288	0	96	48	4
TAP	60	288	6
TAP	60	336	2
TAP	61	0	0
STR	61	0	7
SI_	61	0	7	96	48	3
TAP	61	48	5
STR	61	96	1
SCR	61	96	1	96	48	4
TAP	61	96	7
TAP	61	144	0
TAP	61	192	1
STR	61	192	7
SI_	61	192	7	96	48	3
TAP	61	240	5
STR	61	288	0
SI_	61	288	0	96	48	4
TAP	61	288	7
TAP	61	336	2
TAP	62	0	0
STR	62	0	6
SCL	62	0	6	96	48	3
TAP	62	48	7
STR	62	96	0
SI_	62	96	0	96	48	4
TAP	62	96	6
TAP	62	144	2
TAP	62	192	0
TAP	62	192	6
TAP	62	240	5
TAP	62	288	1
TAP	62	288	6
STR	63	0	6
SCL	63	0	6	96	48	3
TAP	63	0	7
TAP	63	48	5
TAP	63	96	6
STR	63	96	7
SI_	63	96	7	96	48	3
TAP	63	144	1
STR	63	192	6
SI_	63	192	6	96	48	2
TAP	63	192	7
TAP	63	240	5
TAP	63	288	6
TAP	63	288	7
TAP	64	0	0
STR	64	0	1
SCR	64	0	1	96	48	4
TAP	64	48	2
STR	64	96	0
SI_	64	96	0	96	48	4
TAP	64	96	1
TAP	64	144	6
TAP	64	192	0
STR	64	192	1
SI_	64	192	1	96	48	5
TAP	64	240	2
TAP	64	288	0
TAP	64	288	1
TAP	65	0	0
TAP	65	0	7
TAP	65	24	0
TAP	65	24	7
TAP	65	48	0
TAP	65	48	7
TAP	65	72	0
TAP	65	72	7
BRK	65	96	1
BRK	65	96	6
STR	65	192	1
SCR	65	192	1	96	48	4
TAP	65	192	6
TAP	65	240	0
TAP	65	288	1
STR	65	288	7
SI_	65	288	7	96	48	3
TAP	65	336	5
STR	66	0	0
SI_	66	0	0	96	48	4
TAP	66	0	7
TAP	66	48	2
TAP	66	96	0
STR	66	96	6
SCL	66	96	6	96	48	3
TAP	66	144	7
STR	66	192	0
SI_	66	192	0	96	48	4
TAP	66	192	6
TAP	66	240	2
TAP	66	288	0
STR	66	288	7
SI_	66	288	7	96	48	3
TAP	66	336	5
STR	67	0	1
SCR	67	0	1	96	48	4
TAP	67	0	7
TAP	67	48	0
TAP	67	96	1
STR	67	96	7
SI_	67	96	7	96	48	3
TAP	67	144	5
TAP	67	192	0
TAP	67	192	7
TAP	67	240	2
TAP	67	288	0
TAP	67	288	7
TAP	68	0	2
TAP	68	0	3
TAP	68	32	2
TAP	68	32	3
TAP	68	64	2
TAP	68	64	3
TAP	68	96	4
TAP	68	96	5
TAP	68	128	4
TAP	68	128	5
TAP	68	160	4
TAP	68	160	5
TAP	68	192	3
TAP	68	216	4
TAP	68	240	3
TAP	68	264	4
TAP	68	288	2
TAP	68	288	5
TAP	69	0	6
TAP	69	0	7
TAP	69	72	6
TAP	69	72	7
TAP	69	144	0
TAP	69	144	5
TAP	69	240	2
TAP	69	240	3
TAP	69	288	0
TAP	69	288	4
TAP	70	0	0
TAP	70	0	1
TAP	70	72	0
TAP	70	72	1
TAP	70	144	2
TAP	70	144	7
TAP	70	240	4
TAP	70	240	5
TAP	70	288	3
TAP	70	288	7
TAP	71	0	4
TAP	71	96	4
TAP	71	192	3
TAP	71	288	3
TAP	72	0	4
TAP	72	48	4
TAP	72	96	3
TAP	72	108	4
TAP	72	120	3
TAP	72	168	2
TAP	72	168	5
TAP	72	216	3
TAP	72	216	4
TAP	72	240	3
TAP	72	240	4
BRK	72	288	1
BRK	72	288	6
TAP	73	0	0
TAP	73	0	1
TAP	73	48	2
TAP	73	48	7
TAP	73	96	5
TAP	73	120	4
TAP	73	168	4
TAP	73	216	4
TAP	73	264	3
TAP	73	264	5
TAP	73	288	4
TAP	73	312	2
TAP	73	336	6
TAP	74	0	6
TAP	74	0	7
TAP	74	48	0
TAP	74	48	5
TAP	74	96	2
TAP	74	120	3
TAP	74	168	3
TAP	74	216	3
TAP	74	264	2
TAP	74	264	4
TAP	74	288	3
TAP	74	312	5
TAP	74	336	1
TAP	75	0	0
TAP	75	0	1
TAP	75	48	2
TAP	75	48	7
TAP	75	96	5
TAP	75	120	4
TAP	75	168	4
TAP	75	216	4
TAP	75	264	3
TAP	75	264	5
TAP	75	288	4
TAP	75	312	2
TAP	75	336	6
TAP	76	0	3
TAP	76	0	4
TAP	76	48	0
TAP	76	48	2
TAP	76	96	3
TAP	76	96	4
TAP	76	144	5
TAP	76	144	7
STR	76	192	3
SI_	76	192	3	96	48	6
STR	76	192	4
SI_	76	192	4	96	48	1
TAP	76	240	2
TAP	76	240	5
TAP	77	0	3
TAP	77	24	4
TAP	77	48	2
TAP	77	72	3
TAP	77	96	1
TAP	77	96	4
TAP	77	144	4
TAP	77	168	3
TAP	77	192	5
TAP	77	216	4
TAP	77	240	3
TAP	77	240	6
TAP	77	288	3
TAP	77	312	4
TAP	77	336	2
TAP	77	360	3
TAP	78	0	1
TAP	78	0	4
TAP	78	48	4
TAP	78	72	3
TAP	78	96	5
TAP	78	120	4
TAP	78	144	3
TAP	78	144	6
STR	78	192	3
SSR	78	192	3	96	72	7
TAP	78	216	4
TAP	78	240	2
TAP	78	264	3
TAP	78	288	1
TAP	79	0	4
TAP	79	24	3
TAP	79	48	5
TAP	79	72	4
TAP	79	96	3
TAP	79	96	6
TAP	79	144	3
TAP	79	168	4
TAP	79	192	2
TAP	79	216	3
TAP	79	240	1
TAP	79	240	4
TAP	79	288	4
TAP	79	312	3
TAP	79	336	5
TAP	79	360	4
TAP	80	0	3
STR	80	0	6
SI_	80	0	6	96	48	2
STR	80	96	7
SI_	80	96	7	96	48	3
STR	80	192	0
SI_	80	192	0	96	48	4
STR	80	288	1
SI_	80	288	1	96	48	5
STR	81	0	2
SI_	81	0	2	96	48	6
STR	81	96	3
SI_	81	96	3	96	48	7
BRK	81	192	0
BRK	81	240	1
BRK	81	288	2
BRK	81	336	3

T_REC_TAP	753
T_REC_BRK	25
T_REC_XTP	0
T_REC_HLD	25
T_REC_XHO	0
T_REC_STR	90
T_REC_BST	2
T_REC_XST	0
T_REC_TTP	0
T_REC_THO	0
T_REC_SLD	92
T_REC_ALL	987
T_NUM_TAP	843
T_NUM_BRK	27
T_NUM_HLD	25
T_NUM_SLD	92
T_NUM_ALL	987
T_JUDGE_TAP	870
T_JUDGE_HLD	41
T_JUDGE_SLD	92
T_JUDGE_ALL	1003
TTM_EACHPAIRS	271
TTM_SCR_TAP	421500
TTM_SCR_BRK	70200
TTM_SCR_HLD	25000
TTM_SCR_SLD	138000
TTM_SCR_ALL	654700
TTM_SCR_S	632450
TTM_SCR_SS	652000
TTM_RAT_ACV	10041

