VERSION	0.00.00	1.03.00
FES_MODE	0
BPM_DEF	145.000	145.000	145.000	145.000
MET_DEF	4	4
RESOLUTION	384
CLK_DEF	384
COMPATIBLE_CODE	MA2

BPM	0	0	145.000
MET	0	0	4	4

BRK	1	0	3
BRK	1	0	4
TAP	5	0	3
TAP	5	96	2
TAP	5	192	1
TAP	5	288	0
TAP	6	0	7
TAP	6	96	6
TAP	6	192	5
TAP	6	288	4
TAP	7	0	2
TAP	7	0	3
TAP	7	96	1
TAP	7	96	4
TAP	7	192	4
TAP	7	192	5
TAP	7	288	3
TAP	7	288	6
STR	8	0	1
SI_	8	0	1	96	48	3
STR	8	96	7
SI_	8	96	7	96	48	5
STR	8	192	0
SI_	8	192	0	96	48	4
BRK	8	288	7
TAP	9	0	5
TAP	9	48	5
TAP	9	96	4
TAP	9	96	5
TAP	9	168	3
TAP	9	168	4
TAP	9	240	2
TAP	9	288	2
TAP	9	288	3
TAP	10	0	2
TAP	10	48	2
TAP	10	96	2
TAP	10	96	3
TAP	10	168	3
TAP	10	168	4
TAP	10	240	5
TAP	10	288	4
TAP	10	288	5
TAP	11	0	5
TAP	11	48	5
TAP	11	96	4
TAP	11	96	6
TAP	11	168	3
TAP	11	168	4
TAP	11	240	2
TAP	11	288	1
TAP	11	288	3
TAP	12	0	2
TAP	12	48	2
TAP	12	96	1
TAP	12	96	3
TAP	12	168	3
TAP	12	168	4
TAP	12	240	5
TAP	12	288	4
TAP	12	288	6
TAP	13	0	2
TAP	13	48	3
TAP	13	96	2
TAP	13	144	5
TAP	13	192	4
TAP	13	240	5
TAP	13	288	2
TAP	13	336	3
TAP	14	0	2
TAP	14	48	5
TAP	14	96	4
TAP	14	144	5
TAP	14	192	0
TAP	14	240	7
BRK	14	288	0
TAP	15	0	5
TAP	15	48	4
TAP	15	96	5
TAP	15	144	2
TAP	15	192	3
TAP	15	240	2
TAP	15	288	5
TAP	15	336	4
HLD	16	0	5	96
HLD	16	96	4	96
HLD	16	192	3	96
TAP	16	288	2
TAP	17	48	0
TAP	17	48	1
TAP	17	120	6
TAP	17	120	7
TAP	17	192	5
TAP	17	240	4
TAP	17	288	3
TAP	17	336	2
HLD	18	0	1	96
TAP	18	96	0
TAP	18	168	2
TAP	18	168	3
TAP	18	240	4
TAP	18	240	5
TAP	18	288	4
TAP	18	288	5
HLD	19	0	6	96
TAP	19	96	7
TAP	19	168	4
TAP	19	168	5
TAP	19	240	2
TAP	19	240	3
TAP	19	288	2
TAP	19	288	3
HLD	20	0	1	96
TAP	20	96	0
TAP	20	168	2
TAP	20	168	3
TAP	20	240	4
TAP	20	240	5
TAP	20	288	4
TAP	20	288	5
TAP	21	0	2
TAP	21	48	3
TAP	21	96	5
TAP	21	144	4
TAP	21	192	3
TAP	21	240	4
TAP	21	288	2
TAP	21	288	5
HLD	22	0	6	96
TAP	22	96	7
TAP	22	168	0
TAP	22	168	1
TAP	22	240	3
TAP	22	240	4
TAP	22	288	3
TAP	22	288	4
HLD	23	0	1	96
TAP	23	96	0
TAP	23	168	6
TAP	23	168	7
TAP	23	240	3
TAP	23	240	4
TAP	23	288	3
TAP	23	288	4
HLD	24	0	6	96
TAP	24	96	5
HLD	24	192	1	96
TAP	24	288	2
TAP	25	0	5
TAP	25	48	4
TAP	25	96	2
TAP	25	144	3
TAP	25	192	6
TAP	25	240	4
TAP	25	288	1
TAP	25	336	3
STR	26	0	5
SCR	26	0	5	96	192	2
TAP	27	0	1
TAP	27	48	1
TAP	27	96	0
TAP	27	96	1
TAP	27	168	4
TAP	27	168	5
TAP	27	240	2
TAP	27	240	3
TAP	27	288	1
TAP	27	288	4
TAP	28	0	6
TAP	28	48	6
TAP	28	96	6
TAP	28	96	7
TAP	28	168	2
TAP	28	168	3
TAP	28	240	4
TAP	28	240	5
TAP	28	288	3
TAP	28	288	6
TAP	29	0	0
TAP	29	0	2
TAP	29	96	5
TAP	29	96	7
TAP	29	192	1
TAP	29	192	6
TAP	29	240	2
TAP	29	240	5
TAP	29	288	2
TAP	29	288	5
HLD	30	0	3	96
TAP	30	96	2
TAP	30	168	4
TAP	30	168	5
TAP	30	240	1
TAP	30	288	0
TAP	30	288	1
HLD	31	0	4	96
TAP	31	96	5
TAP	31	168	2
TAP	31	168	3
TAP	31	240	6
TAP	31	288	6
TAP	31	288	7
HLD	32	0	3	96
TAP	32	96	4
TAP	32	168	2
TAP	32	168	5
TAP	32	240	1
TAP	32	240	6
TAP	32	288	1
TAP	32	288	6
HLD	33	0	0	96
HLD	33	96	7	96
TAP	33	192	0
TAP	33	216	7
TAP	33	240	0
TAP	33	264	7
TAP	33	336	2
TAP	33	336	3
TAP	34	0	2
TAP	34	0	3
TAP	34	48	1
TAP	34	72	1
TAP	34	144	4
TAP	34	144	5
TAP	34	192	4
TAP	34	192	5
TAP	34	240	6
TAP	34	264	6
TAP	34	336	1
TAP	35	0	0
TAP	35	48	6
TAP	35	96	7
TAP	35	144	0
TAP	35	192	0
TAP	35	192	7
TAP	35	240	1
TAP	35	240	6
TAP	35	264	1
TAP	35	264	6
TAP	35	336	4
TAP	35	336	5
TAP	36	0	4
TAP	36	0	5
TAP	36	48	6
TAP	36	72	6
TAP	36	144	2
TAP	36	144	3
TAP	36	192	2
TAP	36	192	3
TAP	36	240	1
TAP	36	264	1
TAP	36	336	6
TAP	37	0	7
TAP	37	48	1
TAP	37	96	0
TAP	37	144	7
TAP	37	192	0
TAP	37	192	7
TAP	37	240	1
TAP	37	240	6
TAP	37	264	1
TAP	37	264	6
TAP	37	336	3
TAP	37	336	4
TAP	38	0	2
TAP	38	48	2
TAP	38	96	1
TAP	38	144	1
TAP	38	192	0
TAP	38	240	7
TAP	38	288	1
TAP	38	288	6
TAP	39	0	5
TAP	39	48	5
TAP	39	96	6
TAP	39	144	6
TAP	39	192	7
TAP	39	240	0
TAP	39	288	1
TAP	39	288	6
TAP	40	0	3
TAP	40	48	3
TAP	40	96	4
TAP	40	144	4
TAP	40	192	0
TAP	40	240	7
TAP	40	288	1
TAP	40	288	6
TAP	41	0	0
TAP	41	0	1
TAP	41	48	0
TAP	41	48	1
TAP	41	96	6
TAP	41	96	7
TAP	41	144	6
TAP	41	144	7
TAP	41	192	0
TAP	41	240	7
STR	41	288	1
SLR	41	288	1	96	144	0
STR	41	288	6
SLL	41	288	6	96	144	7
TAP	42	192	1
TAP	42	192	6
BRK	42	288	0
BRK	42	288	7
TAP	43	0	2
TAP	43	0	3
TAP	43	48	1
TAP	43	96	2
TAP	43	96	3
TAP	43	144	4
TAP	43	192	2
TAP	43	192	3
TAP	43	240	1
TAP	43	288	2
TAP	43	288	3
TAP	43	336	4
TAP	44	0	5
TAP	44	48	6
TAP	44	96	4
TAP	44	96	5
TAP	44	144	3
TAP	44	192	4
TAP	44	192	5
TAP	44	240	6
TAP	44	288	4
TAP	44	288	5
TAP	44	336	3
TAP	45	0	2
TAP	45	48	1
TAP	45	96	2
TAP	45	96	3
TAP	45	144	4
TAP	45	192	2
TAP	45	192	3
TAP	45	240	1
TAP	45	288	2
TAP	45	288	3
TAP	45	336	4
STR	46	0	5
SI_	46	0	5	96	48	0
BRK	46	96	1
TAP	46	192	2
TAP	46	240	3
TAP	46	288	4
TAP	46	288	5
TAP	47	0	6
TAP	47	0	7
TAP	47	48	0
TAP	47	96	6
TAP	47	96	7
TAP	47	144	5
TAP	47	192	6
TAP	47	192	7
TAP	47	240	0
TAP	47	240	7
TAP	47	288	0
TAP	47	288	1
TAP	48	0	0
TAP	48	0	7
TAP	48	48	1
TAP	48	96	0
TAP	48	96	7
TAP	48	144	6
TAP	48	192	0
TAP	48	192	7
TAP	48	240	1
TAP	48	288	2
TAP	48	288	3
TAP	49	0	4
TAP	49	0	5
TAP	49	48	6
TAP	49	96	4
TAP	49	96	5
TAP	49	144	3
TAP	49	192	4
TAP	49	192	5
TAP	49	240	6
TAP	49	288	4
TAP	49	288	5
TAP	49	336	3
TAP	50	0	2
TAP	50	48	1
TAP	50	96	2
TAP	50	96	3
TAP	50	144	4
TAP	50	192	2
TAP	50	192	3
TAP	50	240	1
TAP	50	288	2
TAP	50	288	3
TAP	50	336	4
TAP	51	0	5
TAP	51	48	6
TAP	51	96	4
TAP	51	96	5
TAP	51	144	3
TAP	51	192	4
TAP	51	192	5
TAP	51	240	6
TAP	51	288	4
TAP	51	288	5
TAP	51	336	3
STR	52	0	2
SI_	52	0	2	96	48	7
BRK	52	96	6
HLD	52	192	5	96
HLD	52	288	4	96
HLD	53	0	3	96
TAP	53	96	1
HLD	53	192	4	96
TAP	53	288	6
HLD	54	0	2	96
TAP	54	96	0
HLD	54	192	5	96
TAP	54	288	7
HLD	55	0	1	96
HLD	55	96	0	96
HLD	55	192	7	96
TAP	55	288	6
TAP	56	0	0
TAP	56	48	7
TAP	56	96	0
TAP	56	144	7
STR	56	192	0
SI_	56	192	0	96	48	4
STR	56	288	7
SI_	56	288	7	96	48	3
STR	57	0	2
SCL	57	0	2	96	192	5
HLD	58	0	6	96
HLD	58	96	4	96
HLD	58	192	3	96
TAP	58	288	1
TAP	59	0	0
TAP	59	0	1
TAP	59	48	2
TAP	59	96	0
TAP	59	96	1
TAP	59	144	7
TAP	59	192	0
TAP	59	192	1
TAP	59	240	2
TAP	59	288	0
TAP	59	288	1
TAP	59	336	7
TAP	60	0	6
TAP	60	48	5
TAP	60	96	6
TAP	60	96	7
TAP	60	144	0
TAP	60	192	6
TAP	60	192	7
TAP	60	240	5
TAP	60	288	6
TAP	60	288	7
TAP	60	336	0
TAP	61	0	1
TAP	61	48	2
TAP	61	96	0
TAP	61	96	1
TAP	61	144	7
TAP	61	192	0
TAP	61	192	1
TAP	61	240	2
TAP	61	288	0
TAP	61	288	1
TAP	61	336	7
TAP	62	0	6
TAP	62	48	5
TAP	62	96	6
TAP	62	96	7
TAP	62	144	0
TAP	62	192	6
TAP	62	192	7
TAP	62	240	5
TAP	62	288	6
TAP	62	288	7
TAP	62	336	0
TAP	63	0	1
TAP	63	48	2
TAP	63	96	0
TAP	63	96	1
TAP	63	144	7
TAP	63	192	0
TAP	63	192	1
TAP	63	240	0
TAP	63	240	7
TAP	63	288	6
TAP	63	288	7
TAP	64	0	3
TAP	64	0	4
TAP	64	48	1
TAP	64	96	3
TAP	64	96	4
TAP	64	144	6
TAP	64	192	3
TAP	64	192	4
TAP	64	240	2
TAP	64	240	5
TAP	64	288	1
TAP	64	288	6
TAP	65	0	0
TAP	65	24	7
TAP	65	48	0
TAP	65	72	7
BRK	65	96	0
TAP	65	240	3
TAP	65	240	4
TAP	65	336	0
TAP	65	336	7
TAP	66	0	1
TAP	66	48	2
TAP	66	96	0
TAP	66	96	1
TAP	66	144	7
TAP	66	192	0
TAP	66	192	1
TAP	66	240	2
TAP	66	288	0
TAP	66	288	1
TAP	66	336	7
TAP	67	0	6
TAP	67	48	5
TAP	67	96	6
TAP	67	96	7
TAP	67	144	0
TAP	67	192	6
TAP	67	192	7
TAP	67	240	5
TAP	67	288	6
TAP	67	288	7
STR	68	0	1
SI_	68	0	1	96	48	4
STR	68	96	6
SI_	68	96	6	96	48	3
STR	68	192	2
SI_	68	192	2	96	48	7
BRK	68	288	6
HLD	69	0	5	72
HLD	69	72	4	72
HLD	69	144	3	96
TAP	69	240	2
TAP	69	288	1
TAP	69	288	4
HLD	70	0	2	72
HLD	70	72	3	72
HLD	70	144	4	96
TAP	70	240	5
TAP	70	288	3
TAP	70	288	6
HLD	71	0	1	96
HLD	71	96	0	96
HLD	71	192	7	96
HLD	71	288	6	96
TAP	72	0	7
TAP	72	48	0
TAP	72	48	1
TAP	72	96	7
TAP	72	120	7
STR	72	168	0
SXL	72	168	0	96	72	1
STR	72	168	7
SXR	72	168	7	96	72	6
TAP	73	0	6
TAP	73	48	6
TAP	73	96	6
TAP	73	96	7
TAP	73	168	0
TAP	73	168	5
TAP	73	240	1
TAP	73	288	0
TAP	73	288	1
TAP	74	0	1
TAP	74	48	1
TAP	74	96	0
TAP	74	96	1
TAP	74	168	2
TAP	74	168	7
TAP	74	240	6
TAP	74	288	6
TAP	74	288	7
TAP	75	0	6
TAP	75	48	6
TAP	75	96	5
TAP	75	96	7
TAP	75	168	3
TAP	75	168	4
TAP	75	240	1
TAP	75	288	0
TAP	75	288	2
TAP	76	0	1
TAP	76	48	1
TAP	76	96	0
TAP	76	96	2
TAP	76	168	3
TAP	76	168	4
TAP	76	240	6
TAP	76	288	5
TAP	76	288	7
TAP	77	0	1
TAP	77	48	0
TAP	77	96	2
TAP	77	96	7
TAP	77	144	6
TAP	77	192	7
TAP	77	240	0
TAP	77	240	5
TAP	77	288	1
TAP	77	336	0
TAP	78	0	2
TAP	78	0	7
TAP	78	48	6
TAP	78	96	7
TAP	78	144	0
TAP	78	144	5
TAP	78	192	1
TAP	78	240	0
BRK	78	288	7
BRK	78	336	0
TAP	79	0	6
TAP	79	48	7
TAP	79	96	0
TAP	79	96	5
TAP	79	144	1
TAP	79	192	0
TAP	79	240	2
TAP	79	240	7
TAP	79	288	6
TAP	79	336	7
HLD	80	0	6	96
HLD	80	96	5	96
HLD	80	192	4	96
HLD	80	288	3	96
HLD	81	0	2	96
HLD	81	96	1	96
TAP	81	192	0
TAP	81	240	1
TAP	81	288	2
TAP	81	336	3

T_REC_TAP	554
T_REC_BRK	12
T_REC_XTP	0
T_REC_HLD	43
T_REC_XHO	0
T_REC_STR	16
T_REC_BST	0
T_REC_XST	0
T_REC_TTP	0
T_REC_THO	0
T_REC_SLD	16
T_REC_ALL	641
T_NUM_TAP	570
T_NUM_BRK	12
T_NUM_HLD	43
T_NUM_SLD	16
T_NUM_ALL	641
T_JUDGE_TAP	582
T_JUDGE_HLD	86
T_JUDGE_SLD	16
T_JUDGE_ALL	684
TTM_EACHPAIRS	162
TTM_SCR_TAP	285000
TTM_SCR_BRK	31200
TTM_SCR_HLD	43000
TTM_SCR_SLD	24000
TTM_SCR_ALL	383200
TTM_SCR_S	370550
TTM_SCR_SS	382000
TTM_RAT_ACV	10031

