VERSION	0.00.00	1.03.00
FES_MODE	0
BPM_DEF	145.000	145.000	145.000	145.000
MET_DEF	4	4
RESOLUTION	384
CLK_DEF	384
COMPATIBLE_CODE	MA2

BPM	0	0	145.000
MET	0	0	4	4

TAP	5	0	3
TAP	5	96	3
TAP	5	192	3
TAP	5	288	3
TAP	6	0	4
TAP	6	96	4
TAP	6	192	4
TAP	6	288	4
TAP	7	0	3
TAP	7	96	3
TAP	7	192	4
TAP	7	288	4
TAP	8	0	3
TAP	8	0	4
TAP	8	96	2
TAP	8	96	5
TAP	8	192	1
TAP	8	192	6
BRK	8	288	0
BRK	8	288	7
TAP	9	0	1
TAP	9	96	2
TAP	9	96	3
TAP	9	192	1
TAP	9	288	0
TAP	9	288	7
TAP	10	0	6
TAP	10	96	4
TAP	10	96	5
TAP	10	192	6
TAP	10	288	0
TAP	10	288	7
TAP	11	0	1
TAP	11	96	2
TAP	11	96	3
TAP	11	192	1
TAP	11	288	0
TAP	11	288	7
TAP	12	0	6
TAP	12	96	4
TAP	12	96	5
TAP	12	192	6
TAP	12	288	0
TAP	12	288	7
HLD	13	0	1	96
TAP	13	96	0
HLD	13	192	2	96
TAP	13	288	3
HLD	14	0	5	96
TAP	14	96	4
HLD	14	192	6	96
TAP	14	288	7
HLD	15	0	1	96
TAP	15	96	3
HLD	15	192	6	96
STR	15	288	4
SXR	15	288	4	96	288	0
TAP	17	48	0
TAP	17	48	7
TAP	17	120	0
TAP	17	120	7
TAP	17	192	0
TAP	17	192	7
HLD	18	0	2	96
TAP	18	96	3
HLD	18	192	5	96
TAP	18	288	4
HLD	19	0	1	96
TAP	19	96	3
HLD	19	192	6	96
TAP	19	288	4
HLD	20	0	2	96
TAP	20	96	1
HLD	20	192	5	96
TAP	20	288	6
TAP	21	0	1
TAP	21	96	0
TAP	21	96	2
TAP	21	192	6
TAP	21	288	5
TAP	21	288	7
HLD	22	0	1	96
TAP	22	96	0
HLD	22	192	6	96
TAP	22	288	7
HLD	23	0	2	96
TAP	23	96	0
HLD	23	192	5	96
TAP	23	288	7
HLD	24	0	1	96
TAP	24	96	2
HLD	24	192	6	96
TAP	24	288	5
HLD	25	0	3	96
TAP	25	96	2
HLD	25	192	4	96
STR	25	288	5
SCR	25	288	5	96	288	2
TAP	27	0	1
TAP	27	96	2
TAP	27	192	3
TAP	27	288	4
TAP	27	288	5
TAP	28	0	6
TAP	28	96	5
TAP	28	192	4
TAP	28	288	2
TAP	28	288	3
TAP	29	0	0
TAP	29	0	1
TAP	29	96	6
TAP	29	96	7
TAP	29	192	0
TAP	29	192	7
TAP	30	0	1
TAP	30	96	2
TAP	30	192	3
TAP	30	288	4
TAP	30	288	5
TAP	31	0	6
TAP	31	96	5
TAP	31	192	4
TAP	31	288	2
TAP	31	288	3
TAP	32	0	2
TAP	32	96	3
TAP	32	192	4
TAP	32	288	6
TAP	32	288	7
TAP	33	0	5
TAP	33	96	4
TAP	33	192	3
TAP	33	288	0
TAP	33	288	1
TAP	34	0	2
TAP	34	0	3
TAP	34	96	3
TAP	34	96	4
TAP	34	192	4
TAP	34	192	5
TAP	34	288	6
TAP	34	288	7
TAP	35	0	4
TAP	35	0	5
TAP	35	96	3
TAP	35	96	4
TAP	35	192	2
TAP	35	192	3
TAP	35	288	0
TAP	35	288	1
TAP	36	0	2
TAP	36	0	3
TAP	36	96	2
TAP	36	96	3
TAP	36	192	4
TAP	36	192	5
TAP	36	288	4
TAP	36	288	5
TAP	37	0	1
TAP	37	0	3
TAP	37	96	1
TAP	37	96	3
TAP	37	192	4
TAP	37	192	6
TAP	37	288	4
TAP	37	288	6
TAP	38	0	2
TAP	38	0	3
TAP	38	96	1
TAP	38	96	4
TAP	38	192	0
TAP	38	192	5
TAP	38	288	6
TAP	38	288	7
TAP	39	0	4
TAP	39	0	5
TAP	39	96	3
TAP	39	96	6
TAP	39	192	2
TAP	39	192	7
TAP	39	288	0
TAP	39	288	1
TAP	40	0	3
TAP	40	0	4
TAP	40	96	2
TAP	40	96	5
TAP	40	192	1
TAP	40	192	6
TAP	40	288	0
TAP	40	288	7
HLD	41	0	3	96
TAP	41	96	2
HLD	41	192	4	96
STR	41	288	5
SCR	41	288	5	96	192	2
BRK	42	288	0
BRK	42	288	7
TAP	43	0	2
TAP	43	48	2
TAP	43	96	2
TAP	43	96	3
TAP	43	192	5
TAP	43	240	5
TAP	43	288	4
TAP	43	288	5
TAP	44	0	1
TAP	44	48	1
TAP	44	96	0
TAP	44	96	1
TAP	44	192	6
TAP	44	240	6
TAP	44	288	6
TAP	44	288	7
TAP	45	0	3
TAP	45	48	3
TAP	45	96	3
TAP	45	96	4
TAP	45	192	7
TAP	45	240	7
STR	45	288	0
SI_	45	288	0	96	96	3
STR	45	288	7
SI_	45	288	7	96	96	4
TAP	46	192	0
TAP	46	192	1
TAP	46	288	6
TAP	46	288	7
TAP	47	0	5
TAP	47	48	5
TAP	47	96	4
TAP	47	96	6
TAP	47	192	7
TAP	47	240	7
TAP	47	288	0
TAP	47	288	6
TAP	48	0	2
TAP	48	48	2
TAP	48	96	1
TAP	48	96	3
TAP	48	192	0
TAP	48	240	0
TAP	48	288	1
TAP	48	288	7
TAP	49	0	5
TAP	49	48	5
TAP	49	96	4
TAP	49	96	5
TAP	49	192	2
TAP	49	240	2
TAP	49	288	2
TAP	49	288	3
TAP	50	0	6
TAP	50	48	6
TAP	50	96	6
TAP	50	96	7
TAP	50	192	1
TAP	50	240	1
TAP	50	288	0
TAP	50	288	1
TAP	51	0	5
TAP	51	48	5
TAP	51	96	4
TAP	51	96	6
TAP	51	192	2
TAP	51	240	2
TAP	51	288	1
TAP	51	288	3
STR	52	0	0
SI_	52	0	0	96	96	3
STR	52	0	7
SI_	52	0	7	96	96	4
TAP	52	288	2
TAP	52	288	5
HLD	53	0	5	192
HLD	53	192	4	192
HLD	54	0	3	192
HLD	54	192	2	192
TAP	55	0	3
TAP	55	96	4
TAP	55	192	5
TAP	55	288	6
TAP	55	288	7
TAP	56	0	4
TAP	56	96	3
TAP	56	192	2
TAP	56	288	0
STR	56	288	1
SCR	56	288	1	96	288	6
TAP	58	0	0
TAP	58	0	7
TAP	58	96	1
TAP	58	96	6
TAP	58	192	2
TAP	58	192	5
BRK	58	288	3
BRK	58	288	4
TAP	59	0	1
TAP	59	48	1
TAP	59	96	2
TAP	59	144	2
TAP	59	192	3
TAP	59	240	3
TAP	59	288	2
TAP	59	288	4
TAP	60	0	6
TAP	60	48	6
TAP	60	96	5
TAP	60	144	5
TAP	60	192	4
TAP	60	240	4
TAP	60	288	3
TAP	60	288	5
TAP	61	0	2
TAP	61	48	2
TAP	61	96	1
TAP	61	144	1
TAP	61	192	0
TAP	61	240	0
TAP	61	288	1
TAP	61	288	7
TAP	62	0	5
TAP	62	48	5
TAP	62	96	6
TAP	62	144	6
TAP	62	192	7
TAP	62	240	7
TAP	62	288	0
TAP	62	288	6
TAP	63	0	2
TAP	63	48	3
TAP	63	96	2
TAP	63	144	3
TAP	63	192	2
TAP	63	288	1
TAP	63	288	4
TAP	64	0	5
TAP	64	48	4
TAP	64	96	5
TAP	64	144	4
TAP	64	192	5
TAP	64	288	3
TAP	64	288	6
TAP	65	0	0
TAP	65	0	7
TAP	65	48	0
TAP	65	48	7
BST	65	96	0
SXL	65	96	0	96	96	2
BST	65	96	7
SXR	65	96	7	96	96	5
TAP	66	0	3
TAP	66	48	3
TAP	66	96	2
TAP	66	144	2
TAP	66	192	1
TAP	66	240	1
TAP	66	288	0
TAP	66	288	7
TAP	67	0	4
TAP	67	48	4
TAP	67	96	5
TAP	67	144	5
TAP	67	192	6
TAP	67	240	6
TAP	67	288	0
TAP	67	288	7
TAP	68	0	2
TAP	68	0	3
TAP	68	96	0
TAP	68	96	7
TAP	68	192	4
TAP	68	192	5
TAP	68	288	0
TAP	68	288	7
HLD	69	0	2	192
HLD	69	192	3	192
HLD	70	0	4	192
HLD	70	192	5	192
TAP	71	0	4
TAP	71	96	3
TAP	71	192	4
TAP	71	288	3
TAP	72	0	0
TAP	72	0	7
TAP	72	48	0
TAP	72	48	7
TAP	72	96	0
TAP	72	96	7
TAP	72	144	0
TAP	72	144	7
TAP	72	192	0
TAP	72	192	7
TAP	72	288	2
TAP	72	288	5
TAP	73	0	1
TAP	73	96	2
TAP	73	96	3
TAP	73	192	4
TAP	73	288	5
TAP	73	288	7
TAP	74	0	6
TAP	74	96	4
TAP	74	96	5
TAP	74	192	3
TAP	74	288	0
TAP	74	288	2
TAP	75	0	1
TAP	75	96	2
TAP	75	96	3
TAP	75	192	4
TAP	75	288	6
TAP	75	288	7
TAP	76	0	6
TAP	76	96	4
TAP	76	96	5
TAP	76	192	3
TAP	76	288	0
TAP	76	288	1
HLD	77	0	2	96
TAP	77	96	3
HLD	77	192	5	96
TAP	77	288	4
HLD	78	0	1	96
TAP	78	96	3
HLD	78	192	6	96
TAP	78	288	4
HLD	79	0	1	96
TAP	79	96	0
HLD	79	192	6	96
TAP	79	288	7
TAP	80	0	3
TAP	80	0	4
TAP	80	96	2
TAP	80	96	5
TAP	80	192	1
TAP	80	192	6
TAP	80	288	0
TAP	80	288	7
TAP	81	0	1
TAP	81	0	6
TAP	81	96	2
TAP	81	96	5
TAP	81	192	3
TAP	81	192	4

T_REC_TAP	382
T_REC_BRK	6
T_REC_XTP	0
T_REC_HLD	36
T_REC_XHO	0
T_REC_STR	8
T_REC_BST	2
T_REC_XST	0
T_REC_TTP	0
T_REC_THO	0
T_REC_SLD	10
T_REC_ALL	444
T_NUM_TAP	390
T_NUM_BRK	8
T_NUM_HLD	36
T_NUM_SLD	10
T_NUM_ALL	444
T_JUDGE_TAP	398
T_JUDGE_HLD	88
T_JUDGE_SLD	10
T_JUDGE_ALL	496
TTM_EACHPAIRS	117
TTM_SCR_TAP	195000
TTM_SCR_BRK	20800
TTM_SCR_HLD	36000
TTM_SCR_SLD	15000
TTM_SCR_ALL	266800
TTM_SCR_S	258050
TTM_SCR_SS	266000
TTM_RAT_ACV	10030

