VERSION	0.00.00	1.03.00
FES_MODE	0
BPM_DEF	145.000	145.000	145.000	145.000
MET_DEF	4	4
RESOLUTION	384
CLK_DEF	384
COMPATIBLE_CODE	MA2

BPM	0	0	145.000
MET	0	0	4	4

TAP	5	0	7
TAP	5	192	7
TAP	6	0	0
TAP	6	192	0
HLD	7	0	7	192
HLD	8	0	0	192
TAP	9	0	7
TAP	9	192	7
TAP	10	0	6
TAP	10	192	6
TAP	11	0	5
TAP	11	192	5
TAP	12	0	4
TAP	12	192	3
TAP	12	192	4
TAP	13	0	3
TAP	13	96	3
TAP	13	192	3
TAP	14	0	2
TAP	14	96	2
TAP	14	192	2
TAP	15	0	1
TAP	15	96	1
TAP	15	192	1
STR	16	0	0
SI_	16	0	0	96	288	4
TAP	18	0	0
TAP	18	96	0
TAP	19	0	1
TAP	19	96	1
TAP	20	0	2
TAP	20	96	2
TAP	21	0	3
TAP	21	96	3
TAP	21	192	4
TAP	21	288	4
TAP	22	0	3
TAP	22	96	3
TAP	23	0	4
TAP	23	96	4
TAP	24	0	5
TAP	24	96	5
TAP	25	0	6
TAP	25	96	6
TAP	25	192	6
TAP	25	288	6
STR	26	0	6
SI_	26	0	6	96	288	3
STR	28	0	1
SI_	28	0	1	96	288	4
TAP	30	0	7
TAP	30	96	7
TAP	30	192	7
TAP	31	0	6
TAP	31	96	6
TAP	31	192	6
TAP	32	0	5
TAP	32	96	5
TAP	32	192	5
TAP	33	0	4
TAP	33	96	4
TAP	33	192	3
TAP	33	288	3
TAP	34	0	4
TAP	34	96	4
TAP	34	192	4
TAP	34	288	4
TAP	35	0	3
TAP	35	96	3
TAP	35	192	3
TAP	35	288	3
TAP	36	0	2
TAP	36	96	2
TAP	36	192	2
TAP	36	288	2
TAP	37	0	1
TAP	37	96	1
TAP	37	192	1
TAP	37	288	1
TAP	38	0	0
TAP	38	0	1
TAP	38	192	0
TAP	38	192	1
TAP	39	0	2
TAP	39	0	3
TAP	39	192	2
TAP	39	192	3
TAP	40	0	4
TAP	40	0	5
TAP	40	192	4
TAP	40	192	5
TAP	41	0	6
TAP	41	0	7
TAP	41	192	6
TAP	41	192	7
TAP	42	0	0
TAP	42	96	7
BRK	42	192	0
BRK	42	192	7
TAP	43	0	0
TAP	43	96	0
TAP	43	192	1
TAP	43	288	1
TAP	44	0	2
TAP	44	96	2
TAP	44	192	3
TAP	44	288	3
TAP	45	0	4
TAP	45	96	4
TAP	45	192	5
TAP	45	288	5
HLD	46	0	6	192
TAP	47	0	7
TAP	47	96	7
TAP	47	192	6
TAP	47	288	6
TAP	48	0	5
TAP	48	96	5
TAP	48	192	4
TAP	48	288	4
TAP	49	0	3
TAP	49	96	3
TAP	49	192	2
TAP	49	288	2
TAP	50	0	1
TAP	50	96	1
TAP	50	192	0
TAP	50	288	0
TAP	51	0	7
TAP	51	96	0
TAP	51	192	7
TAP	51	288	0
BRK	52	0	0
BRK	52	0	7
TAP	52	192	0
TAP	52	192	7
TAP	52	288	0
TAP	52	288	7
STR	53	0	0
SI_	53	0	0	96	288	3
STR	53	0	7
SI_	53	0	7	96	288	4
STR	55	0	3
SI_	55	0	3	96	288	0
STR	55	0	4
SI_	55	0	4	96	288	7
HLD	57	0	1	384
HLD	57	0	6	384
TAP	59	0	0
TAP	59	48	0
TAP	59	96	0
TAP	59	192	1
TAP	59	240	1
TAP	59	288	1
TAP	60	0	2
TAP	60	48	2
TAP	60	96	2
TAP	60	192	3
TAP	60	240	3
TAP	60	288	3
TAP	61	0	4
TAP	61	48	4
TAP	61	96	4
TAP	61	192	5
TAP	61	240	5
TAP	61	288	5
TAP	62	0	6
TAP	62	48	6
TAP	62	96	6
TAP	62	192	7
TAP	62	240	7
TAP	62	288	7
TAP	63	0	6
TAP	63	48	6
TAP	63	96	6
TAP	63	192	5
TAP	63	240	5
TAP	63	288	5
TAP	64	0	4
TAP	64	48	4
TAP	64	96	4
TAP	64	192	3
TAP	64	240	3
TAP	64	288	3
TAP	65	0	2
TAP	65	48	2
TAP	65	96	2
TAP	65	192	1
TAP	65	240	1
TAP	65	288	1
TAP	66	0	0
TAP	66	48	0
TAP	66	96	0
TAP	66	192	7
TAP	66	240	7
TAP	66	288	7
TAP	67	0	6
TAP	67	48	6
TAP	67	96	6
TAP	67	192	5
TAP	67	240	5
TAP	67	288	5
TAP	68	0	3
TAP	68	0	4
TAP	68	288	3
TAP	68	288	4
STR	69	0	3
SI_	69	0	3	96	288	0
STR	69	0	4
SI_	69	0	4	96	288	7
TAP	70	288	0
TAP	70	288	7
STR	71	0	0
SI_	71	0	0	96	288	3
STR	71	0	7
SI_	71	0	7	96	288	4
BRK	72	288	3
TAP	73	0	4
TAP	73	96	4
TAP	73	192	4
TAP	74	0	5
TAP	74	96	5
TAP	74	192	4
TAP	74	192	5
TAP	75	0	6
TAP	75	96	6
TAP	75	192	6
TAP	76	0	7
TAP	76	96	7
TAP	76	192	0
TAP	76	288	0
TAP	77	0	7
TAP	77	96	7
TAP	77	192	7
TAP	77	288	7
TAP	78	0	0
TAP	78	96	0
TAP	78	192	0
TAP	78	288	0
TAP	78	288	7
TAP	79	0	1
TAP	79	96	1
TAP	79	192	2
TAP	79	288	2
TAP	80	0	3
TAP	80	96	3
TAP	80	192	4
TAP	80	288	4
TAP	81	0	5
TAP	81	96	5
HLD	81	192	3	192
HLD	81	192	4	192

T_REC_TAP	218
T_REC_BRK	5
T_REC_XTP	0
T_REC_HLD	7
T_REC_XHO	0
T_REC_STR	11
T_REC_BST	0
T_REC_XST	0
T_REC_TTP	0
T_REC_THO	0
T_REC_SLD	11
T_REC_ALL	252
T_NUM_TAP	229
T_NUM_BRK	5
T_NUM_HLD	7
T_NUM_SLD	11
T_NUM_ALL	252
T_JUDGE_TAP	234
T_JUDGE_HLD	36
T_JUDGE_SLD	11
T_JUDGE_ALL	281
TTM_EACHPAIRS	24
TTM_SCR_TAP	114500
TTM_SCR_BRK	13000
TTM_SCR_HLD	7000
TTM_SCR_SLD	16500
TTM_SCR_ALL	151000
TTM_SCR_S	146000
TTM_SCR_SS	150500
TTM_RAT_ACV	10033

