VERSION	0.00.00	1.03.00
FES_MODE	0
BPM_DEF	150.000	150.000	150.000	150.000
MET_DEF	4	4
RESOLUTION	384
CLK_DEF	384
COMPATIBLE_CODE	MA2

BPM	0	0	150.000
MET	0	0	4	4

HLD	1	0	2	72
HLD	1	72	3	72
TAP	1	144	1
HLD	1	192	1	96
TAP	1	288	0
HLD	2	0	6	72
HLD	2	72	5	72
TAP	2	144	4
HLD	2	192	4	96
TAP	2	288	3
TAP	2	312	3
HLD	3	0	5	72
HLD	3	72	4	72
TAP	3	144	6
HLD	3	192	6	96
TAP	3	288	7
HLD	4	0	1	72
HLD	4	72	2	72
TAP	4	144	3
HLD	4	192	3	96
TAP	4	288	4
TAP	4	312	4
TAP	4	336	3
TAP	4	360	3
HLD	5	0	7	72
HLD	5	72	6	72
TAP	5	144	5
HLD	5	192	5	96
TAP	5	288	7
TAP	5	336	1
TAP	5	336	6
HLD	6	0	2	72
HLD	6	72	1	72
TAP	6	144	0
HLD	6	192	0	96
TAP	6	288	4
TAP	6	312	3
TAP	6	336	4
TAP	7	0	1
TAP	7	0	3
TAP	7	72	4
TAP	7	72	6
TAP	7	144	2
TAP	7	144	5
TAP	7	192	2
TAP	7	192	5
STR	7	288	4
SUL	7	288	4	96	192	3
TAP	7	336	3
STR	8	192	0
SSL	8	192	0	96	72	4
TAP	9	0	5
TAP	9	24	4
TAP	9	48	5
TAP	9	72	4
TAP	9	96	5
TAP	9	144	3
TAP	9	144	6
TAP	9	192	2
TAP	9	240	1
TAP	9	240	4
TAP	9	288	0
TAP	9	336	2
TAP	9	336	7
TAP	10	0	6
TAP	10	24	7
TAP	10	48	6
TAP	10	72	7
TAP	10	96	6
TAP	10	144	0
TAP	10	144	5
TAP	10	192	2
TAP	10	192	3
TAP	10	240	4
TAP	10	240	5
TAP	10	288	0
TAP	10	288	7
TAP	11	0	2
TAP	11	24	3
TAP	11	48	2
TAP	11	72	3
TAP	11	96	2
TAP	11	144	1
TAP	11	144	4
TAP	11	192	5
TAP	11	240	3
TAP	11	240	6
TAP	11	288	7
TAP	11	336	0
TAP	11	336	5
TAP	12	0	1
TAP	12	24	0
TAP	12	48	1
TAP	12	72	0
TAP	12	96	1
TAP	12	144	2
TAP	12	144	7
TAP	12	192	4
TAP	12	192	5
TAP	12	240	2
TAP	12	240	3
TAP	12	288	0
TAP	12	312	0
TAP	12	336	7
TAP	12	360	7
TAP	13	0	1
TAP	13	24	0
TAP	13	48	1
TAP	13	72	0
TAP	13	96	1
TAP	13	144	2
TAP	13	144	7
STR	13	192	3
SXL	13	192	3	96	48	5
SXR	13	192	3	96	48	1
TAP	13	240	2
TAP	13	240	4
TAP	14	0	6
TAP	14	24	7
TAP	14	48	6
TAP	14	72	7
TAP	14	96	6
TAP	14	144	0
TAP	14	144	5
STR	14	192	4
SSL	14	192	4	96	72	0
TAP	14	240	3
TAP	14	240	5
TAP	15	0	1
TAP	15	24	0
TAP	15	48	1
TAP	15	72	0
TAP	15	96	1
TAP	15	144	3
TAP	15	144	4
TAP	15	192	6
TAP	15	216	7
TAP	15	240	6
TAP	15	264	7
TAP	15	288	6
TAP	15	336	3
TAP	15	336	4
TAP	16	0	2
TAP	16	24	5
TAP	16	48	2
TAP	16	72	5
TAP	16	96	1
TAP	16	120	6
TAP	16	144	1
TAP	16	168	6
TAP	16	192	0
TAP	16	216	7
TAP	16	240	0
TAP	16	264	7
TAP	16	288	3
TAP	16	312	4
TAP	16	336	3
TAP	16	360	4
HLD	17	0	1	72
TAP	17	72	2
TAP	17	96	1
TAP	17	144	0
TAP	17	144	7
HLD	17	192	6	72
TAP	17	264	5
TAP	17	288	6
TAP	17	336	0
TAP	17	336	7
HLD	18	0	3	72
TAP	18	72	4
TAP	18	96	3
TAP	18	144	0
TAP	18	144	7
TAP	18	192	1
TAP	18	192	6
STR	18	288	2
SCL	18	288	2	96	48	7
TAP	18	336	3
TAP	19	0	2
STR	19	96	5
SCR	19	96	5	96	48	0
TAP	19	144	4
TAP	19	192	5
TAP	19	240	1
STR	19	288	2
SCL	19	288	2	96	144	5
TAP	19	336	3
TAP	20	0	4
TAP	20	144	4
STR	20	192	4
SI_	20	192	4	96	48	0
TAP	20	288	7
HLD	21	0	5	72
TAP	21	72	6
TAP	21	96	5
TAP	21	144	0
TAP	21	144	7
TAP	21	192	3
TAP	21	216	4
TAP	21	240	3
TAP	21	264	4
TAP	21	288	3
TAP	21	336	0
TAP	21	336	7
HLD	22	0	2	72
TAP	22	72	1
TAP	22	96	2
TAP	22	144	0
TAP	22	144	7
STR	22	192	1
SUR	22	192	1	96	48	5
STR	22	192	6
SUL	22	192	6	96	48	2
TAP	23	0	3
STR	23	0	4
SV_	23	0	4	96	48	1
TAP	23	96	4
TAP	23	96	7
STR	23	192	3
SV_	23	192	3	96	48	6
TAP	23	192	4
TAP	23	288	0
TAP	23	288	3
STR	24	0	3
SI_	24	0	3	96	48	1
STR	24	0	4
SI_	24	0	4	96	48	0
STR	24	96	3
SI_	24	96	3	96	48	7
STR	24	96	4
SI_	24	96	4	96	48	6
TAP	24	192	3
TAP	24	192	4
BRK	24	288	0
HLD	25	0	7	72
TAP	25	72	0
TAP	25	96	7
TAP	25	144	1
TAP	25	144	6
TAP	25	192	2
TAP	25	216	3
TAP	25	240	2
TAP	25	264	3
TAP	25	288	2
TAP	25	336	1
TAP	25	336	4
TAP	26	0	5
TAP	26	24	4
TAP	26	48	5
TAP	26	72	4
TAP	26	96	5
TAP	26	144	3
TAP	26	144	6
TAP	26	192	2
TAP	26	240	0
TAP	26	240	2
TAP	26	288	5
TAP	26	336	5
TAP	26	336	7
HLD	27	0	0	72
TAP	27	72	7
TAP	27	96	0
TAP	27	144	1
TAP	27	144	6
TAP	27	192	3
TAP	27	216	4
TAP	27	240	2
TAP	27	264	5
TAP	27	288	3
TAP	27	312	4
TAP	27	336	1
TAP	27	360	6
HLD	28	0	3	72
TAP	28	72	4
TAP	28	96	3
TAP	28	144	2
TAP	28	144	5
TAP	28	192	0
TAP	28	192	7
TAP	28	240	3
TAP	28	240	4
TAP	28	336	1
TAP	28	336	2
HLD	29	0	1	96
HLD	29	0	2	96
TAP	29	144	5
TAP	29	144	6
HLD	29	192	5	96
HLD	29	192	6	96
TAP	29	336	3
TAP	29	360	4
HLD	30	0	3	48
TAP	30	48	1
HLD	30	96	4	48
TAP	30	144	6
HLD	30	192	2	48
TAP	30	240	0
HLD	30	288	5	48
TAP	30	336	7
HLD	31	0	1	48
HLD	31	48	2	48
HLD	31	96	3	48
HLD	31	144	4	48
HLD	31	192	5	48
HLD	31	240	6	48
HLD	31	288	7	48
STR	31	336	0
SCR	31	336	0	96	144	7
STR	32	336	1
SCR	32	336	1	96	48	4
TAP	32	360	0
TAP	33	0	1
TAP	33	48	5
TAP	33	96	5
STR	33	144	6
SCL	33	144	6	96	48	3
TAP	33	168	7
TAP	33	192	6
TAP	33	240	2
TAP	33	288	2
TAP	33	336	1
TAP	33	360	3
TAP	34	0	2
TAP	34	48	0
TAP	34	48	5
TAP	34	96	6
TAP	34	120	4
TAP	34	144	5
TAP	34	192	2
TAP	34	192	3
TAP	34	240	4
TAP	34	240	5
TAP	34	288	2
TAP	34	288	7
STR	34	336	1
SCR	34	336	1	96	48	4
TAP	34	360	0
TAP	35	0	1
TAP	35	48	5
TAP	35	96	5
STR	35	144	6
SCL	35	144	6	96	48	3
TAP	35	168	7
TAP	35	192	6
TAP	35	240	1
STR	35	288	2
SI_	35	288	2	96	48	7
TAP	35	336	2
STR	36	0	5
SI_	36	0	5	96	48	0
TAP	36	48	5
STR	36	96	3
SI_	36	96	3	96	48	7
TAP	36	144	3
TAP	36	192	6
BRK	36	240	0
BRK	36	288	0
STR	36	336	5
SCR	36	336	5	96	48	0
TAP	36	360	4
TAP	37	0	5
TAP	37	48	1
TAP	37	96	1
STR	37	144	2
SCL	37	144	2	96	48	7
TAP	37	168	3
TAP	37	192	2
TAP	37	240	6
TAP	37	288	6
TAP	37	336	4
TAP	37	360	3
TAP	38	0	4
TAP	38	48	1
TAP	38	48	7
TAP	38	96	4
TAP	38	96	5
TAP	38	144	2
TAP	38	144	3
TAP	38	192	0
TAP	38	192	6
BRK	38	240	7
BRK	38	288	7
STR	38	336	3
SI_	38	336	3	96	48	0
STR	38	336	4
SI_	38	336	4	96	48	7
TAP	38	360	2
TAP	38	360	5
TAP	39	0	1
TAP	39	0	6
STR	39	144	1
SLR	39	144	1	96	72	0
STR	39	144	6
SLL	39	144	6	96	72	7
TAP	39	168	2
TAP	39	168	5
TAP	39	192	3
TAP	39	192	4
STR	40	0	1
SI_	40	0	1	96	32	6
STR	40	0	5
SI_	40	0	5	96	32	2
TAP	40	96	1
TAP	40	96	5
TAP	40	168	0
TAP	40	168	7
TAP	40	240	3
TAP	40	240	4
TAP	40	288	0
TAP	40	312	7
TAP	40	336	0
TAP	40	360	7
BST	41	0	1
SXR	41	0	1	96	432	4
BST	41	0	6
SXL	41	0	6	96	432	3
STR	42	192	3
SCL	42	192	3	96	48	0
STR	42	192	4
SCR	42	192	4	96	48	7
HLD	43	0	2	72
HLD	43	72	3	72
TAP	43	144	1
HLD	43	192	5	72
HLD	43	264	4	72
TAP	43	336	6
TAP	44	0	2
TAP	44	24	4
TAP	44	48	3
TAP	44	72	5
TAP	44	120	6
TAP	44	120	7
TAP	44	144	6
TAP	44	144	7
TAP	44	192	5
TAP	44	216	3
TAP	44	240	4
TAP	44	264	2
TAP	44	312	0
TAP	44	312	1
TAP	44	336	0
TAP	44	336	1
TAP	45	0	2
TAP	45	24	3
TAP	45	72	5
TAP	45	96	4
TAP	45	144	1
TAP	45	168	3
TAP	45	216	6
TAP	45	240	4
TAP	45	288	0
TAP	45	288	1
TAP	46	0	5
TAP	46	24	4
TAP	46	72	2
TAP	46	96	3
TAP	46	144	6
TAP	46	168	4
TAP	46	216	1
TAP	46	240	3
TAP	46	288	6
TAP	46	288	7
STR	47	0	0
SUR	47	0	0	96	192	3
STR	47	0	5
SUL	47	0	5	96	192	2
STR	48	0	2
SUR	48	0	2	96	192	5
STR	48	0	7
SUL	48	0	7	96	192	4
TAP	49	0	1
TAP	49	24	0
TAP	49	48	1
TAP	49	72	0
TAP	49	96	1
TAP	49	144	2
TAP	49	144	7
TAP	49	192	4
TAP	49	192	5
TAP	49	240	6
TAP	49	240	7
TAP	49	288	0
TAP	49	288	1
TAP	49	336	2
TAP	49	336	3
HLD	50	0	5	96
TAP	50	48	7
TAP	50	96	4
TAP	50	144	6
TAP	50	144	7
HLD	50	192	2	96
TAP	50	240	0
TAP	50	288	3
TAP	50	336	0
TAP	50	336	1
TAP	51	0	7
TAP	51	24	0
TAP	51	48	7
TAP	51	72	0
TAP	51	96	6
TAP	51	120	1
TAP	51	144	6
TAP	51	168	1
TAP	51	192	5
TAP	51	216	2
TAP	51	240	5
HLD	51	264	2	120
TAP	52	0	5
TAP	52	48	1
TAP	52	48	6
TAP	52	96	3
TAP	52	96	4
TAP	52	144	1
TAP	52	144	6
TAP	52	192	3
TAP	52	192	4
TAP	52	240	0
TAP	52	264	7
TAP	52	336	3
TAP	52	336	4
TAP	53	0	1
TAP	53	24	0
TAP	53	48	1
TAP	53	72	0
TAP	53	96	1
HLD	53	120	0	48
TAP	53	168	7
TAP	53	192	6
TAP	53	216	7
TAP	53	240	6
TAP	53	288	0
TAP	53	288	5
HLD	54	0	2	96
TAP	54	48	0
TAP	54	96	3
TAP	54	144	0
TAP	54	144	1
HLD	54	192	5	96
TAP	54	240	7
TAP	54	288	4
TAP	54	336	6
TAP	54	336	7
HLD	55	0	1	96
TAP	55	0	3
TAP	55	48	4
TAP	55	96	5
HLD	55	144	1	96
TAP	55	144	6
HLD	55	192	7	48
TAP	55	288	1
TAP	55	288	7
TAP	55	336	4
HLD	55	336	6	144
TAP	56	0	3
TAP	56	48	2
TAP	56	96	1
HLD	56	144	0	96
HLD	56	144	6	96
TAP	56	288	0
TAP	56	288	6
STR	57	0	3
SF_	57	0	3	96	48	7
TAP	57	48	1
TAP	57	48	5
STR	57	192	4
SF_	57	192	4	96	48	0
TAP	57	240	2
TAP	57	240	6
TAP	58	0	1
TAP	58	24	0
TAP	58	48	1
TAP	58	72	0
TAP	58	96	2
TAP	58	96	7
TAP	58	144	6
TAP	58	168	7
TAP	58	192	6
TAP	58	216	7
TAP	58	240	0
TAP	58	240	5
TAP	58	288	1
TAP	58	304	2
TAP	58	320	3
TAP	58	336	6
TAP	58	352	5
TAP	58	368	4
TAP	59	0	0
BST	59	336	2
SCL	59	336	2	96	96	5
BST	59	336	5
SCR	59	336	5	96	96	2
STR	60	192	3
SI_	60	192	3	96	48	7
STR	60	192	4
SI_	60	192	4	96	48	0
TAP	60	240	2
TAP	60	240	5
TAP	60	288	3
TAP	60	288	4
STR	61	0	2
SI_	61	0	2	96	48	7
STR	61	0	3
SI_	61	0	3	96	48	6
TAP	61	48	1
TAP	61	48	4
TAP	61	96	2
TAP	61	96	3
STR	61	192	4
SI_	61	192	4	96	48	1
STR	61	192	5
SI_	61	192	5	96	48	0
TAP	61	240	3
TAP	61	240	6
TAP	61	288	4
TAP	61	288	5
TAP	62	0	2
TAP	62	0	3
TAP	62	48	4
TAP	62	48	5
STR	62	96	0
SI_	62	96	0	96	48	4
TAP	62	144	2
TAP	62	144	6
TAP	62	192	0
BRK	62	240	7
BRK	62	288	7
TAP	62	336	5
TAP	62	360	4
TAP	63	0	5
TAP	63	48	0
TAP	63	48	7
TAP	63	96	1
TAP	63	96	6
TAP	63	144	2
TAP	63	168	3
TAP	63	192	2
TAP	63	216	3
TAP	63	240	2
TAP	63	288	0
TAP	63	288	7
TAP	63	336	5
TAP	63	360	4
TAP	64	0	5
TAP	64	48	2
TAP	64	48	3
STR	64	96	7
SI_	64	96	7	96	48	3
TAP	64	144	1
TAP	64	144	5
TAP	64	192	7
BRK	64	240	0
BRK	64	288	0
TAP	64	336	1
TAP	64	360	2
HLD	65	0	3	96
TAP	65	96	2
TAP	65	144	6
TAP	65	168	5
HLD	65	192	4	96
TAP	65	288	5
TAP	65	336	0
TAP	65	336	1
TAP	65	360	2
TAP	65	360	7
TAP	66	0	3
TAP	66	0	6
TAP	66	48	6
TAP	66	48	7
TAP	66	72	0
TAP	66	72	5
TAP	66	96	1
TAP	66	96	4
TAP	66	144	0
TAP	66	144	7
TAP	66	168	1
TAP	66	168	6
TAP	66	192	2
TAP	66	192	5
BRK	66	288	0
BRK	66	288	7
TAP	66	336	1
STR	66	336	4
SV_	66	336	4	96	48	1
TAP	66	360	2
TAP	66	360	5
TAP	67	0	3
TAP	67	0	6
TAP	67	48	7
TAP	67	96	7
STR	67	144	3
SV_	67	144	3	96	48	6
TAP	67	144	6
TAP	67	168	2
TAP	67	168	5
TAP	67	192	1
TAP	67	192	4
TAP	67	240	0
TAP	67	288	0
TAP	67	336	1
TAP	67	360	0
TAP	68	0	1
TAP	68	48	3
TAP	68	48	4
TAP	68	96	6
TAP	68	120	7
TAP	68	144	6
STR	68	192	3
SI_	68	192	3	96	48	7
TAP	68	240	1
TAP	68	240	5
TAP	68	288	3
TAP	68	336	1
TAP	68	360	0
STR	69	0	1
SI_	69	0	1	96	24	5
TAP	69	48	7
STR	69	96	6
SI_	69	96	6	96	24	2
TAP	69	144	0
STR	69	192	1
SCR	69	192	1	96	24	4
TAP	69	240	7
STR	69	288	6
SCL	69	288	6	96	24	3
TAP	69	336	0
STR	70	0	2
SI_	70	0	2	96	24	7
TAP	70	48	6
STR	70	96	5
SI_	70	96	5	96	24	0
TAP	70	144	1
TAP	70	192	1
BRK	70	240	7
BRK	70	288	7
STR	70	336	3
SV_	70	336	3	96	48	6
TAP	70	336	6
TAP	70	360	2
TAP	70	360	5
TAP	71	0	1
TAP	71	0	4
TAP	71	48	0
TAP	71	96	0
TAP	71	144	1
STR	71	144	4
SV_	71	144	4	96	48	1
TAP	71	168	2
TAP	71	168	5
TAP	71	192	3
TAP	71	192	6
TAP	71	240	7
TAP	71	288	7
TAP	71	336	3
TAP	71	360	4
TAP	72	0	3
TAP	72	48	1
TAP	72	48	5
STR	72	96	4
SI_	72	96	4	96	48	0
TAP	72	144	2
TAP	72	144	6
TAP	72	192	4
BRK	72	240	7
BRK	72	288	7
STR	72	336	3
SI_	72	336	3	96	48	7
STR	72	336	4
SI_	72	336	4	96	48	0
TAP	72	360	2
TAP	72	360	5
TAP	73	0	1
TAP	73	0	6
STR	73	144	1
SLR	73	144	1	96	72	7
STR	73	144	6
SLL	73	144	6	96	72	0
TAP	73	168	2
TAP	73	168	5
TAP	73	192	3
TAP	73	192	4
TAP	74	0	3
TAP	74	0	4
TAP	74	48	1
TAP	74	96	2
TAP	74	144	3
TAP	74	192	4
TAP	74	240	5
STR	74	288	6
SCL	74	288	6	96	144	1
TAP	74	336	7
HLD	75	0	0	192
BRK	75	192	7
TAP	76	0	2
TAP	76	24	7
TAP	76	48	0
TAP	76	72	5
TAP	76	96	1
TAP	76	120	4
TAP	76	144	3
TAP	76	168	6
TAP	76	192	1
TAP	76	216	0
TAP	76	240	1
TAP	76	264	0
TAP	76	288	1
TAP	76	336	2
TAP	76	336	7
TAP	77	0	4
TAP	77	0	5
TAP	77	48	2
TAP	77	48	3
TAP	77	96	0
TAP	77	96	7
TAP	77	192	5
TAP	77	216	4
TAP	77	240	5
TAP	77	264	4
TAP	77	288	5
TAP	77	336	3
TAP	77	336	6
TAP	78	0	2
TAP	78	48	1
TAP	78	48	4
TAP	78	96	0
TAP	78	144	2
TAP	78	144	7
TAP	78	192	6
TAP	78	216	7
TAP	78	240	6
TAP	78	264	7
TAP	78	288	6
TAP	78	336	0
TAP	78	336	5
TAP	79	0	2
TAP	79	0	3
TAP	79	48	4
TAP	79	48	5
TAP	79	96	7
TAP	79	120	7
TAP	79	144	0
TAP	79	168	0
TAP	79	192	6
TAP	79	216	7
TAP	79	240	6
TAP	79	264	7
TAP	79	288	6
TAP	79	336	0
TAP	79	336	5
STR	80	0	4
SXL	80	0	4	96	48	6
SXR	80	0	4	96	48	2
TAP	80	48	3
TAP	80	48	5
TAP	80	192	1
TAP	80	216	0
TAP	80	240	1
TAP	80	264	0
TAP	80	288	1
TAP	80	336	2
TAP	80	336	7
STR	81	0	3
SSR	81	0	3	96	72	7
TAP	81	48	2
TAP	81	48	4
TAP	81	192	6
TAP	81	216	7
TAP	81	240	6
TAP	81	264	7
TAP	81	288	6
TAP	81	336	3
TAP	81	336	4
TAP	82	0	1
TAP	82	24	0
TAP	82	48	1
TAP	82	72	0
TAP	82	96	1
TAP	82	144	3
TAP	82	144	4
STR	82	192	1
SI_	82	192	1	96	24	4
STR	82	264	0
SI_	82	264	0	96	24	5
STR	82	336	7
SI_	82	336	7	96	24	2
STR	83	24	6
SI_	83	24	6	96	24	3
TAP	83	96	0
HLD	83	144	0	144
STR	83	288	7
SF_	83	288	7	96	576	3
STR	86	240	0
SI_	86	240	0	96	24	4

T_REC_TAP	659
T_REC_BRK	16
T_REC_XTP	0
T_REC_HLD	61
T_REC_XHO	0
T_REC_STR	73
T_REC_BST	4
T_REC_XST	0
T_REC_TTP	0
T_REC_THO	0
T_REC_SLD	79
T_REC_ALL	892
T_NUM_TAP	732
T_NUM_BRK	20
T_NUM_HLD	61
T_NUM_SLD	79
T_NUM_ALL	892
T_JUDGE_TAP	752
T_JUDGE_HLD	114
T_JUDGE_SLD	79
T_JUDGE_ALL	945
TTM_EACHPAIRS	172
TTM_SCR_TAP	366000
TTM_SCR_BRK	52000
TTM_SCR_HLD	61000
TTM_SCR_SLD	118500
TTM_SCR_ALL	597500
TTM_SCR_S	577650
TTM_SCR_SS	595500
TTM_RAT_ACV	10033

