VERSION	0.00.00	1.03.00
FES_MODE	0
BPM_DEF	150.000	150.000	150.000	150.000
MET_DEF	4	4
RESOLUTION	384
CLK_DEF	384
COMPATIBLE_CODE	MA2

BPM	0	0	150.000
MET	0	0	4	4

HLD	1	0	5	288
TAP	1	288	4
HLD	2	0	2	288
TAP	2	288	3
HLD	3	0	4	288
TAP	3	288	5
HLD	4	0	3	96
HLD	4	96	4	96
HLD	4	192	5	96
TAP	4	288	6
HLD	5	0	4	192
TAP	5	192	5
HLD	6	0	3	192
TAP	6	192	2
HLD	7	0	2	96
HLD	7	96	5	96
HLD	7	192	3	96
HLD	7	288	4	96
HLD	8	0	2	96
HLD	8	96	3	96
HLD	8	192	4	96
TAP	8	288	5
TAP	9	0	5
TAP	9	96	4
TAP	9	192	2
TAP	9	192	3
TAP	9	288	1
TAP	10	0	2
TAP	10	96	3
TAP	10	192	4
TAP	10	192	5
TAP	10	288	6
TAP	11	0	6
TAP	11	96	7
TAP	11	192	0
TAP	11	192	1
TAP	11	288	2
TAP	12	0	1
TAP	12	96	0
TAP	12	192	0
TAP	12	192	5
TAP	13	0	5
TAP	13	96	4
TAP	13	192	2
TAP	13	192	3
TAP	13	288	1
TAP	14	0	2
TAP	14	96	3
TAP	14	192	4
TAP	14	192	5
TAP	14	288	6
TAP	15	0	4
TAP	15	0	5
TAP	15	96	5
TAP	15	96	6
TAP	15	192	6
TAP	15	192	7
STR	15	288	0
SCR	15	288	0	96	288	6
TAP	15	288	6
STR	17	0	6
SLL	17	0	6	96	192	2
SLR	17	0	6	96	192	2
STR	18	0	2
SUR	18	0	2	96	192	5
TAP	19	0	6
TAP	19	0	7
TAP	19	96	0
TAP	19	96	5
TAP	19	192	1
TAP	19	192	4
TAP	19	288	2
TAP	19	288	3
TAP	20	0	0
TAP	20	0	1
TAP	20	96	2
TAP	20	96	7
TAP	20	192	3
TAP	20	192	6
STR	21	0	6
SI_	21	0	6	96	96	2
STR	21	192	1
SI_	21	192	1	96	96	5
STR	22	0	6
SI_	22	0	6	96	96	3
STR	22	192	1
SI_	22	192	1	96	96	4
TAP	23	0	5
TAP	23	96	6
TAP	23	192	6
TAP	23	192	7
TAP	23	288	0
TAP	24	0	0
TAP	24	0	1
TAP	24	96	0
TAP	24	192	1
TAP	24	192	6
BRK	24	288	0
TAP	25	0	0
TAP	25	0	1
TAP	25	96	2
TAP	25	96	7
TAP	25	192	6
TAP	25	192	7
TAP	25	288	0
TAP	25	288	5
TAP	26	0	2
TAP	26	0	3
TAP	26	96	1
TAP	26	96	4
TAP	26	192	3
TAP	26	192	4
TAP	26	240	5
TAP	26	288	2
TAP	26	336	5
TAP	27	0	2
TAP	27	0	3
TAP	27	96	1
TAP	27	96	4
TAP	27	192	4
TAP	27	192	5
TAP	27	288	3
TAP	27	288	6
TAP	28	0	6
TAP	28	0	7
TAP	28	96	0
TAP	28	96	7
TAP	28	192	0
TAP	28	192	1
HLD	29	0	3	96
TAP	29	0	4
TAP	29	96	2
TAP	29	192	3
HLD	29	192	4	96
TAP	29	288	5
HLD	30	0	2	96
TAP	30	0	3
TAP	30	96	1
TAP	30	192	4
HLD	30	192	5	96
TAP	30	288	6
HLD	31	0	7	96
HLD	31	96	6	96
HLD	31	192	5	96
HLD	31	288	4	96
STR	32	0	3
SCR	32	0	3	96	192	6
TAP	33	0	7
TAP	33	96	0
TAP	33	96	1
TAP	33	192	0
TAP	33	288	6
TAP	33	288	7
TAP	34	0	4
TAP	34	96	2
TAP	34	96	3
TAP	34	192	5
TAP	34	240	4
TAP	34	288	5
TAP	35	0	6
TAP	35	96	4
TAP	35	96	5
TAP	35	192	1
TAP	35	288	2
TAP	35	288	3
TAP	36	0	5
TAP	36	96	6
TAP	36	96	7
TAP	36	192	0
TAP	36	192	5
STR	37	0	0
SI_	37	0	0	96	192	3
STR	37	0	7
SUL	37	0	7	96	192	2
TAP	38	0	1
TAP	38	0	7
TAP	38	96	0
TAP	38	96	6
BRK	38	192	1
BRK	38	192	7
TAP	38	336	1
TAP	38	336	7
TAP	39	0	1
TAP	39	0	7
TAP	39	144	0
TAP	39	144	6
TAP	39	192	0
TAP	39	192	6
HLD	40	0	0	96
HLD	40	96	1	96
HLD	40	192	2	96
TAP	40	288	3
BST	41	0	3
SSL	41	0	3	96	480	7
HLD	43	0	3	96
HLD	43	96	2	96
HLD	43	192	1	96
TAP	43	288	0
STR	44	0	0
SSR	44	0	0	96	192	4
HLD	45	0	7	96
HLD	45	96	6	96
HLD	45	192	5	96
TAP	45	288	4
STR	46	0	4
SSR	46	0	4	96	192	0
HLD	47	0	6	288
TAP	47	192	5
TAP	47	288	5
HLD	48	0	1	288
TAP	48	192	2
TAP	48	288	2
TAP	49	0	4
TAP	49	0	5
TAP	49	96	6
TAP	49	96	7
TAP	49	192	1
TAP	49	240	1
TAP	49	288	1
STR	50	0	1
SI_	50	0	1	96	96	6
STR	50	0	5
SI_	50	0	5	96	96	2
TAP	51	0	2
TAP	51	0	3
TAP	51	96	0
TAP	51	96	1
TAP	51	192	6
TAP	51	240	6
TAP	51	288	6
STR	52	0	3
SI_	52	0	3	96	96	0
STR	52	0	7
SI_	52	0	7	96	96	4
TAP	53	0	0
TAP	53	0	1
TAP	53	96	2
TAP	53	96	3
TAP	53	192	5
TAP	53	240	5
TAP	53	288	5
STR	54	0	1
SI_	54	0	1	96	96	6
STR	54	0	5
SI_	54	0	5	96	96	2
TAP	55	0	0
TAP	55	0	1
TAP	55	96	2
TAP	55	96	7
TAP	55	192	6
TAP	55	192	7
TAP	55	288	0
TAP	55	288	5
TAP	56	0	0
TAP	56	0	1
TAP	56	96	3
TAP	56	96	7
TAP	56	192	6
TAP	56	192	7
TAP	56	288	0
TAP	56	288	4
TAP	57	0	1
BRK	57	48	0
TAP	57	192	6
BRK	57	240	7
TAP	57	336	1
STR	58	0	6
SI_	58	0	6	96	192	1
HLD	59	0	6	96
TAP	59	0	7
TAP	59	96	5
TAP	59	192	0
HLD	59	192	1	96
TAP	59	288	2
TAP	60	0	1
TAP	60	48	6
TAP	60	96	0
TAP	60	144	7
TAP	60	192	1
TAP	60	192	6
TAP	60	240	1
TAP	60	240	6
TAP	60	288	1
TAP	60	288	6
TAP	61	0	2
TAP	61	48	2
TAP	61	96	3
TAP	61	192	5
TAP	61	240	5
TAP	61	288	4
TAP	62	0	0
TAP	62	48	7
TAP	62	96	1
TAP	62	144	6
BRK	62	192	0
TAP	63	0	1
TAP	63	48	0
TAP	63	96	2
TAP	63	96	7
TAP	63	192	6
TAP	63	240	7
TAP	63	288	0
TAP	63	288	5
TAP	64	0	6
TAP	64	48	1
TAP	64	96	0
TAP	64	144	7
TAP	64	192	1
TAP	64	192	6
TAP	64	336	6
TAP	65	0	0
TAP	65	0	5
TAP	65	144	1
TAP	65	192	2
TAP	65	192	7
TAP	65	336	0
TAP	66	0	7
TAP	66	48	0
TAP	66	48	7
TAP	66	96	0
TAP	66	96	7
TAP	66	144	1
TAP	66	144	6
BRK	66	192	1
BRK	66	192	6
TAP	67	0	1
TAP	67	48	0
TAP	67	96	2
TAP	67	96	7
TAP	67	192	6
TAP	67	240	7
TAP	67	288	0
TAP	67	288	5
TAP	68	0	0
TAP	68	0	1
TAP	68	96	2
TAP	68	96	7
TAP	68	192	6
TAP	68	192	7
TAP	68	240	0
TAP	68	240	5
TAP	68	288	1
TAP	68	288	4
HLD	69	0	2	96
TAP	69	0	3
TAP	69	96	5
TAP	69	192	4
HLD	69	192	5	96
TAP	69	288	2
TAP	70	0	1
TAP	70	48	6
TAP	70	96	0
TAP	70	144	7
BRK	70	192	1
BRK	70	192	6
TAP	71	0	0
HLD	71	0	1	96
TAP	71	96	2
HLD	71	192	6	96
TAP	71	192	7
TAP	71	288	5
TAP	72	0	0
TAP	72	48	7
TAP	72	96	6
TAP	72	96	7
TAP	72	144	0
TAP	72	144	5
TAP	72	192	1
TAP	72	192	4
TAP	72	336	1
TAP	73	0	2
TAP	73	0	7
TAP	73	144	6
TAP	73	192	0
TAP	73	192	5
TAP	74	0	0
TAP	74	0	1
TAP	74	96	2
TAP	74	96	3
TAP	74	192	4
TAP	74	192	5
TAP	74	288	6
TAP	74	288	7
HLD	75	0	1	96
HLD	75	0	4	96
TAP	75	192	1
TAP	75	192	4
TAP	75	288	2
TAP	75	336	2
TAP	76	0	3
TAP	76	96	1
TAP	76	96	4
TAP	76	192	3
TAP	76	192	6
TAP	76	288	5
TAP	76	336	5
TAP	77	0	4
TAP	77	96	3
TAP	77	96	6
TAP	77	192	1
TAP	77	192	4
TAP	77	288	2
TAP	77	336	2
TAP	78	0	3
TAP	78	96	1
TAP	78	96	4
HLD	78	192	2	96
HLD	78	288	1	96
HLD	79	0	0	96
TAP	79	96	7
TAP	79	192	0
TAP	79	240	0
TAP	79	288	7
TAP	79	336	7
TAP	80	0	0
TAP	80	96	2
TAP	80	96	7
TAP	80	192	6
TAP	80	240	6
TAP	80	288	1
TAP	80	336	1
TAP	81	0	6
TAP	81	96	0
TAP	81	96	5
TAP	81	192	0
TAP	81	192	1
TAP	81	288	2
TAP	81	288	3
TAP	82	0	4
TAP	82	0	5
TAP	82	96	6
TAP	82	96	7
STR	82	192	7
SI_	82	192	7	96	288	3
STR	83	288	0
SF_	83	288	0	96	768	4

T_REC_TAP	336
T_REC_BRK	10
T_REC_XTP	0
T_REC_HLD	45
T_REC_XHO	0
T_REC_STR	21
T_REC_BST	1
T_REC_XST	0
T_REC_TTP	0
T_REC_THO	0
T_REC_SLD	23
T_REC_ALL	436
T_NUM_TAP	357
T_NUM_BRK	11
T_NUM_HLD	45
T_NUM_SLD	23
T_NUM_ALL	436
T_JUDGE_TAP	368
T_JUDGE_HLD	114
T_JUDGE_SLD	23
T_JUDGE_ALL	505
TTM_EACHPAIRS	118
TTM_SCR_TAP	178500
TTM_SCR_BRK	28600
TTM_SCR_HLD	45000
TTM_SCR_SLD	34500
TTM_SCR_ALL	286600
TTM_SCR_S	276950
TTM_SCR_SS	285500
TTM_RAT_ACV	10038

