VERSION	0.00.00	1.03.00
FES_MODE	0
BPM_DEF	150.000	150.000	150.000	150.000
MET_DEF	4	4
RESOLUTION	384
CLK_DEF	384
COMPATIBLE_CODE	MA2

BPM	0	0	150.000
MET	0	0	4	4

TAP	5	0	0
TAP	5	96	1
TAP	5	192	2
TAP	6	0	7
TAP	6	96	6
TAP	6	192	5
TAP	7	0	4
TAP	7	96	3
TAP	7	192	4
STR	7	288	3
SCR	7	288	3	96	288	0
TAP	9	0	7
TAP	9	96	6
TAP	9	192	4
TAP	9	192	5
TAP	10	0	0
TAP	10	96	1
TAP	10	192	2
TAP	10	192	3
TAP	11	0	6
TAP	11	96	5
TAP	11	192	4
TAP	11	288	3
TAP	11	288	4
TAP	12	0	1
TAP	12	96	2
TAP	12	192	3
TAP	12	192	4
TAP	13	0	6
TAP	13	96	6
TAP	13	192	6
TAP	13	192	7
TAP	14	0	1
TAP	14	96	1
TAP	14	192	0
TAP	14	192	1
TAP	15	0	7
TAP	15	96	0
TAP	15	192	7
STR	15	288	0
SCL	15	288	0	96	288	3
TAP	17	0	2
TAP	17	96	2
TAP	17	192	1
TAP	17	288	0
TAP	18	0	7
TAP	18	96	6
TAP	18	192	6
TAP	18	192	7
TAP	19	0	5
TAP	19	96	5
TAP	19	192	6
TAP	19	288	7
TAP	20	0	0
TAP	20	96	1
TAP	20	192	0
TAP	20	192	1
TAP	21	0	0
TAP	21	0	1
TAP	21	96	0
TAP	21	96	7
TAP	21	192	6
TAP	21	192	7
TAP	21	288	0
TAP	21	288	7
TAP	22	0	0
TAP	22	0	7
TAP	22	96	0
TAP	22	96	7
TAP	22	192	0
TAP	22	192	7
TAP	23	0	0
TAP	23	0	7
TAP	23	96	1
TAP	23	96	6
TAP	23	192	2
TAP	23	192	5
TAP	24	0	3
TAP	24	0	4
TAP	24	96	2
TAP	24	96	5
BRK	24	192	1
BRK	24	192	6
TAP	25	0	1
HLD	25	96	2	192
TAP	25	192	3
TAP	25	288	4
TAP	26	0	3
TAP	26	0	4
TAP	26	96	3
TAP	26	96	4
TAP	26	192	3
TAP	26	192	4
TAP	27	0	5
HLD	27	96	6	192
TAP	27	192	7
TAP	27	288	0
TAP	28	0	0
TAP	28	0	7
TAP	28	96	0
TAP	28	96	7
TAP	28	192	0
TAP	28	192	7
TAP	29	0	0
TAP	29	0	1
TAP	29	192	2
STR	29	192	3
SXL	29	192	3	96	384	7
HLD	31	0	0	384
HLD	31	0	7	384
TAP	33	0	0
TAP	33	96	0
TAP	33	192	1
TAP	33	288	1
TAP	34	0	0
TAP	34	96	1
TAP	34	192	0
TAP	34	192	1
TAP	34	288	0
TAP	34	288	1
TAP	35	0	7
TAP	35	96	6
TAP	35	192	6
TAP	35	192	7
TAP	35	288	6
TAP	35	288	7
STR	36	0	6
SI_	36	0	6	96	96	1
TAP	37	0	0
TAP	37	0	1
TAP	37	96	7
TAP	37	192	6
TAP	37	192	7
TAP	37	288	5
TAP	38	0	4
TAP	38	0	5
STR	38	96	4
SCL	38	96	4	96	96	1
TAP	39	0	0
TAP	39	0	1
TAP	39	96	2
TAP	39	96	7
TAP	39	192	3
TAP	39	192	6
TAP	39	288	4
TAP	39	288	5
TAP	40	0	2
TAP	40	0	5
TAP	40	96	1
TAP	40	96	6
TAP	40	192	0
TAP	40	192	7
TAP	40	288	0
TAP	40	288	7
STR	41	0	0
SCR	41	0	0	96	288	3
STR	41	0	7
SCL	41	0	7	96	288	4
TAP	43	0	5
TAP	43	96	4
TAP	43	192	4
TAP	43	192	5
TAP	43	288	3
TAP	43	288	4
TAP	44	0	4
TAP	44	96	3
TAP	44	192	3
TAP	44	192	4
TAP	44	288	2
TAP	44	288	3
TAP	45	0	0
TAP	45	0	1
TAP	45	96	0
TAP	45	96	7
TAP	45	192	0
TAP	45	288	7
TAP	46	0	0
TAP	46	0	7
TAP	46	96	6
TAP	46	96	7
TAP	46	192	7
TAP	46	288	6
STR	47	0	5
SCL	47	0	5	96	192	2
STR	48	0	1
SCL	48	0	1	96	192	6
TAP	49	0	4
TAP	49	0	5
TAP	49	96	3
TAP	49	96	4
TAP	49	192	2
TAP	49	192	3
TAP	49	288	3
TAP	49	288	4
STR	50	0	5
SI_	50	0	5	96	96	2
TAP	51	0	2
TAP	51	96	5
TAP	51	192	3
TAP	51	192	4
STR	51	288	3
SUL	51	288	3	96	288	4
TAP	53	0	2
TAP	53	0	3
TAP	53	96	3
TAP	53	96	4
TAP	53	192	4
TAP	53	192	5
TAP	53	288	3
TAP	53	288	4
HLD	54	0	2	96
TAP	54	96	3
HLD	54	192	5	96
TAP	54	288	4
TAP	55	0	6
TAP	55	0	7
TAP	55	96	0
TAP	55	96	5
TAP	55	192	1
TAP	55	192	4
TAP	56	0	2
TAP	56	0	3
TAP	56	96	1
TAP	56	96	4
TAP	56	192	0
TAP	56	192	5
TAP	57	0	6
TAP	57	0	7
TAP	57	192	0
TAP	57	192	1
STR	58	0	0
SCR	58	0	0	96	192	3
STR	58	0	7
SCL	58	0	7	96	192	4
STR	59	0	3
SI_	59	0	3	96	192	0
STR	59	0	4
SI_	59	0	4	96	192	7
TAP	60	0	1
TAP	60	96	6
BRK	60	192	1
BRK	60	192	6
BRK	60	288	1
BRK	60	288	6
HLD	61	0	0	96
HLD	61	0	1	96
HLD	61	192	6	96
HLD	61	192	7	96
TAP	62	0	6
TAP	62	0	7
TAP	62	96	0
TAP	62	96	7
TAP	62	192	0
TAP	62	192	1
TAP	63	0	2
TAP	63	96	3
HLD	63	192	4	96
TAP	63	288	3
TAP	64	0	3
TAP	64	0	4
TAP	64	96	3
TAP	64	96	4
TAP	64	192	3
TAP	64	192	4
TAP	65	0	2
TAP	65	96	5
TAP	65	192	1
TAP	65	192	6
TAP	65	288	1
TAP	65	288	6
TAP	66	0	0
TAP	66	96	7
BRK	66	192	1
BRK	66	192	6
HLD	67	0	1	96
TAP	67	96	0
HLD	67	192	6	96
TAP	67	288	7
TAP	68	0	6
TAP	68	96	1
TAP	68	192	1
TAP	68	192	6
TAP	68	288	2
TAP	68	288	5
HLD	69	0	2	96
TAP	69	96	3
HLD	69	192	5	96
TAP	69	288	4
TAP	70	0	3
TAP	70	0	4
TAP	70	96	3
TAP	70	96	4
TAP	70	192	3
TAP	70	192	4
TAP	71	0	0
TAP	71	0	1
TAP	71	96	0
TAP	71	96	7
TAP	71	192	6
TAP	71	192	7
TAP	71	288	0
TAP	71	288	7
TAP	72	0	1
TAP	72	0	6
TAP	72	96	1
TAP	72	96	6
TAP	72	192	1
TAP	72	192	6
TAP	73	0	0
TAP	73	0	1
TAP	73	96	2
TAP	73	96	7
TAP	73	192	6
TAP	73	192	7
TAP	73	288	0
TAP	73	288	5
TAP	74	0	0
TAP	74	0	7
BST	75	0	1
SCR	75	0	1	96	480	4
BST	75	0	5
SCR	75	0	5	96	480	0
HLD	77	192	7	96
TAP	77	288	0
HLD	78	0	0	96
TAP	78	96	7
TAP	78	192	6
TAP	78	288	1
TAP	79	0	1
TAP	79	0	6
TAP	79	96	1
TAP	79	96	6
STR	79	192	2
SI_	79	192	2	96	192	6
STR	80	192	5
SI_	80	192	5	96	192	1
TAP	81	192	1
TAP	81	192	6
TAP	81	288	1
TAP	81	288	6
TAP	82	0	0
TAP	82	0	7
TAP	82	96	0
TAP	82	96	7
HLD	82	192	0	288
HLD	82	192	7	288
TAP	83	288	0
TAP	83	288	7

T_REC_TAP	283
T_REC_BRK	8
T_REC_XTP	0
T_REC_HLD	19
T_REC_XHO	0
T_REC_STR	17
T_REC_BST	2
T_REC_XST	0
T_REC_TTP	0
T_REC_THO	0
T_REC_SLD	19
T_REC_ALL	348
T_NUM_TAP	300
T_NUM_BRK	10
T_NUM_HLD	19
T_NUM_SLD	19
T_NUM_ALL	348
T_JUDGE_TAP	310
T_JUDGE_HLD	62
T_JUDGE_SLD	19
T_JUDGE_ALL	391
TTM_EACHPAIRS	112
TTM_SCR_TAP	150000
TTM_SCR_BRK	26000
TTM_SCR_HLD	19000
TTM_SCR_SLD	28500
TTM_SCR_ALL	223500
TTM_SCR_S	215850
TTM_SCR_SS	222500
TTM_RAT_ACV	10044

