VERSION	0.00.00	1.03.00
FES_MODE	0
BPM_DEF	150.000	150.000	150.000	150.000
MET_DEF	4	4
RESOLUTION	384
CLK_DEF	384
COMPATIBLE_CODE	MA2

BPM	0	0	150.000
MET	0	0	4	4
MET	75	0	4	2
MET	75	192	4	4

TAP	5	0	0
TAP	5	192	0
TAP	6	0	1
TAP	6	192	1
TAP	7	0	2
TAP	7	192	2
HLD	8	0	3	192
TAP	9	0	4
TAP	9	192	4
TAP	10	0	5
TAP	10	96	5
TAP	10	192	5
TAP	11	0	6
TAP	11	192	6
TAP	12	0	7
TAP	12	192	0
TAP	12	192	7
TAP	13	0	7
TAP	13	192	7
TAP	14	0	6
TAP	14	96	6
TAP	14	192	6
TAP	15	0	5
TAP	15	192	5
HLD	16	0	3	192
HLD	16	0	4	192
TAP	17	0	3
TAP	17	192	3
TAP	18	0	2
TAP	18	96	2
TAP	18	192	2
TAP	19	0	1
TAP	19	192	1
TAP	20	0	0
TAP	20	96	7
TAP	20	192	0
TAP	21	0	7
TAP	21	192	7
TAP	22	0	6
TAP	22	96	6
TAP	22	192	6
TAP	23	0	5
TAP	23	192	5
TAP	24	0	4
TAP	24	96	3
TAP	24	192	4
BRK	24	288	3
TAP	25	0	4
TAP	25	192	4
TAP	26	0	5
TAP	26	96	5
TAP	26	192	5
TAP	27	0	6
TAP	27	192	6
TAP	28	0	7
TAP	28	96	0
TAP	28	192	7
STR	29	0	0
SI_	29	0	0	96	288	3
STR	31	0	7
SI_	31	0	7	96	288	4
TAP	33	0	0
TAP	33	96	0
TAP	33	192	0
TAP	34	0	1
TAP	34	96	1
TAP	34	192	1
TAP	35	0	2
TAP	35	0	3
TAP	35	192	2
TAP	35	192	3
TAP	36	0	3
TAP	36	96	4
TAP	36	192	3
TAP	37	0	4
TAP	37	96	4
TAP	37	192	4
TAP	38	0	5
TAP	38	96	5
TAP	38	192	5
TAP	39	0	6
TAP	39	0	7
TAP	39	192	6
TAP	39	192	7
TAP	40	0	7
TAP	40	96	7
TAP	40	192	0
TAP	40	288	0
STR	41	0	7
SI_	41	0	7	96	288	4
STR	43	0	0
SI_	43	0	0	96	288	3
STR	45	0	7
SI_	45	0	7	96	288	3
HLD	47	0	0	384
TAP	49	0	0
TAP	49	96	0
TAP	49	192	1
TAP	49	288	1
TAP	50	0	2
TAP	50	0	3
TAP	50	192	2
TAP	50	192	3
TAP	51	0	4
TAP	51	96	4
TAP	51	192	5
TAP	51	288	5
TAP	52	0	6
TAP	52	0	7
TAP	52	192	6
TAP	52	192	7
TAP	53	0	7
TAP	53	96	7
TAP	53	192	6
TAP	53	288	6
TAP	54	0	4
TAP	54	0	5
TAP	54	192	4
TAP	54	192	5
HLD	55	0	3	192
HLD	56	0	3	192
HLD	56	0	4	192
TAP	57	0	2
TAP	57	0	3
TAP	57	192	4
TAP	57	192	5
TAP	58	0	3
TAP	58	0	4
TAP	58	96	3
TAP	58	96	4
TAP	58	192	2
TAP	58	192	5
HLD	59	0	1	192
HLD	60	0	0	192
TAP	61	0	0
TAP	61	96	0
TAP	61	192	1
TAP	61	288	1
TAP	62	0	2
TAP	62	96	2
BRK	62	192	3
BRK	62	192	4
TAP	63	0	4
TAP	63	96	4
TAP	63	192	5
TAP	63	288	5
TAP	64	0	6
TAP	64	96	6
TAP	64	192	0
TAP	64	192	7
TAP	65	0	0
TAP	65	0	7
TAP	65	192	1
TAP	65	192	6
TAP	66	0	0
TAP	66	0	7
TAP	66	96	0
TAP	66	96	7
BRK	66	192	1
BRK	66	192	6
TAP	67	0	7
TAP	67	96	7
TAP	67	192	6
TAP	67	288	6
TAP	68	0	5
TAP	68	96	5
TAP	68	192	3
TAP	68	192	4
TAP	68	288	3
TAP	68	288	4
TAP	69	0	3
TAP	69	96	3
TAP	69	192	2
TAP	69	288	2
TAP	70	0	1
TAP	70	96	1
BRK	70	192	0
BRK	70	192	7
TAP	71	0	0
TAP	71	96	0
TAP	71	192	1
TAP	71	288	1
TAP	72	0	2
TAP	72	96	2
TAP	72	192	3
TAP	72	192	4
TAP	73	0	3
TAP	73	0	4
TAP	73	192	2
TAP	73	192	5
HLD	74	0	3	192
HLD	74	0	4	192
STR	75	0	3
SI_	75	0	3	96	288	0
STR	75	0	4
SI_	75	0	4	96	288	7
TAP	77	192	0
TAP	77	192	7
TAP	78	0	0
TAP	78	0	7
TAP	78	192	0
TAP	78	288	7
TAP	79	0	0
TAP	79	192	7
TAP	80	0	6
TAP	80	192	5
TAP	81	0	4
TAP	81	192	3
TAP	82	0	2
TAP	82	192	1
TAP	83	0	0
STR	83	192	7
SI_	83	192	7	96	288	3

T_REC_TAP	179
T_REC_BRK	7
T_REC_XTP	0
T_REC_HLD	11
T_REC_XHO	0
T_REC_STR	8
T_REC_BST	0
T_REC_XST	0
T_REC_TTP	0
T_REC_THO	0
T_REC_SLD	8
T_REC_ALL	213
T_NUM_TAP	187
T_NUM_BRK	7
T_NUM_HLD	11
T_NUM_SLD	8
T_NUM_ALL	213
T_JUDGE_TAP	194
T_JUDGE_HLD	48
T_JUDGE_SLD	8
T_JUDGE_ALL	250
TTM_EACHPAIRS	35
TTM_SCR_TAP	93500
TTM_SCR_BRK	18200
TTM_SCR_HLD	11000
TTM_SCR_SLD	12000
TTM_SCR_ALL	134700
TTM_SCR_S	130000
TTM_SCR_SS	134000
TTM_RAT_ACV	10052

