VERSION	0.00.00	1.03.00
FES_MODE	0
BPM_DEF	180.000	180.000	180.000	180.000
MET_DEF	4	4
RESOLUTION	384
CLK_DEF	384
COMPATIBLE_CODE	MA2

BPM	0	0	180.000
MET	0	0	4	4
MET	10	0	4	2
MET	10	192	4	4

TAP	1	0	0
TAP	1	192	2
TAP	2	0	1
TAP	2	192	3
TAP	3	0	4
TAP	3	192	5
TAP	4	0	7
TAP	4	192	6
TAP	5	0	6
TAP	5	0	7
TAP	5	192	1
TAP	5	192	4
TAP	6	0	0
TAP	6	0	5
TAP	6	192	2
TAP	6	192	3
TAP	7	0	4
TAP	7	0	5
TAP	7	192	3
TAP	7	192	6
TAP	8	0	0
TAP	8	0	1
TAP	8	192	2
STR	8	192	7
SCL	8	192	7	96	480	0
TAP	10	192	3
TAP	10	192	4
TAP	10	240	5
TAP	10	264	4
TAP	10	288	5
TAP	10	336	2
TAP	10	360	3
TAP	11	0	2
TAP	11	48	3
TAP	11	48	4
BRK	11	96	1
BRK	11	96	6
STR	11	192	2
SCL	11	192	2	96	48	7
TAP	11	192	7
STR	11	288	5
SCR	11	288	5	96	48	0
STR	12	0	3
SUL	12	0	3	96	48	6
STR	12	96	4
SUR	12	96	4	96	48	1
STR	12	192	2
SCL	12	192	2	96	48	7
STR	12	288	5
SCR	12	288	5	96	48	0
STR	13	0	3
SUL	13	0	3	96	48	6
TAP	13	96	4
STR	13	192	4
SI_	13	192	4	96	48	1
STR	13	192	5
SI_	13	192	5	96	48	0
TAP	13	288	4
TAP	13	288	5
TAP	14	0	2
TAP	14	0	7
TAP	14	48	1
TAP	14	48	6
TAP	14	96	0
TAP	14	96	5
TAP	14	192	2
TAP	14	192	3
STR	14	288	6
SXR	14	288	6	96	96	3
STR	14	288	7
SXL	14	288	7	96	96	2
TAP	15	192	0
STR	15	192	5
SCR	15	192	5	96	48	0
STR	15	288	2
SCL	15	288	2	96	48	7
STR	16	0	4
SUR	16	0	4	96	48	1
STR	16	96	3
SUL	16	96	3	96	48	6
STR	16	192	5
SCR	16	192	5	96	48	0
STR	16	288	2
SCL	16	288	2	96	48	7
STR	17	0	4
SUR	17	0	4	96	48	1
TAP	17	96	3
STR	17	192	2
SI_	17	192	2	96	48	7
STR	17	192	3
SI_	17	192	3	96	48	6
TAP	17	288	2
TAP	17	288	3
TAP	18	0	0
TAP	18	0	5
TAP	18	96	4
TAP	18	120	3
TAP	18	144	4
TAP	18	168	3
HLD	18	192	5	48
HLD	18	240	2	48
HLD	18	288	3	48
TAP	18	336	4
TAP	19	0	2
TAP	19	0	5
TAP	19	48	3
TAP	19	48	4
TAP	19	96	3
TAP	19	96	4
TAP	19	144	3
TAP	19	144	4
TAP	19	192	4
TAP	19	192	5
TAP	19	240	3
TAP	19	288	2
TAP	19	288	3
TAP	19	336	4
TAP	20	0	4
TAP	20	0	5
TAP	20	48	2
TAP	20	96	1
TAP	20	96	3
TAP	20	144	5
TAP	20	192	4
TAP	20	192	6
TAP	20	240	2
TAP	20	288	1
TAP	20	288	3
TAP	20	336	4
BRK	21	0	0
BRK	21	48	1
BST	21	96	2
SCL	21	96	2	96	48	0
STR	21	192	4
SXL	21	192	4	96	48	6
STR	21	288	3
SCL	21	288	3	96	48	1
STR	22	0	5
SCR	22	0	5	96	48	7
STR	22	96	3
SXR	22	96	3	96	72	1
STR	22	192	4
SCR	22	192	4	96	48	6
STR	22	288	3
SI_	22	288	3	96	48	7
STR	23	0	7
SI_	23	0	7	96	48	1
SI_	23	0	7	96	48	5
TAP	23	192	2
TAP	23	216	5
TAP	23	240	2
TAP	23	264	5
TAP	23	288	3
TAP	23	300	4
TAP	23	312	3
TAP	23	324	4
TAP	24	0	0
TAP	24	0	7
TAP	24	96	0
TAP	24	96	7
TAP	24	192	1
TAP	24	192	6
TAP	24	240	0
TAP	24	240	7
TAP	24	288	1
TAP	24	288	6
TAP	24	336	0
TAP	24	336	7
TAP	25	0	1
TAP	25	0	6
TAP	25	48	2
TAP	25	96	2
TAP	25	144	4
TAP	25	192	4
TAP	25	192	5
TAP	25	240	3
TAP	25	288	2
TAP	25	288	3
TAP	25	336	5
TAP	26	0	4
TAP	26	0	6
TAP	26	48	2
STR	26	96	1
SXR	26	96	1	96	144	6
TAP	26	96	3
TAP	27	0	3
TAP	27	0	4
TAP	27	48	3
TAP	27	48	4
HLD	27	96	3	48
HLD	27	96	4	48
TAP	27	192	2
TAP	27	192	5
TAP	27	240	6
TAP	27	288	6
TAP	27	288	7
TAP	27	336	1
TAP	28	0	0
TAP	28	0	1
TAP	28	48	6
TAP	28	96	6
TAP	28	96	7
TAP	28	144	1
TAP	28	192	0
TAP	28	192	1
TAP	28	240	2
TAP	28	240	7
TAP	28	288	0
TAP	28	288	1
TAP	28	336	2
TAP	28	336	7
TAP	29	0	6
TAP	29	0	7
TAP	29	48	0
TAP	29	48	5
TAP	29	96	1
TAP	29	96	4
TAP	29	144	5
TAP	29	192	6
TAP	29	192	7
TAP	29	240	2
TAP	29	288	0
TAP	29	288	1
TAP	29	336	5
TAP	30	0	6
TAP	30	0	7
TAP	30	48	2
TAP	30	96	0
TAP	30	96	1
TAP	30	144	7
TAP	30	192	0
TAP	30	192	5
TAP	30	240	1
TAP	30	240	4
TAP	30	288	2
TAP	30	288	3
TAP	30	336	2
TAP	30	336	3
BRK	31	0	0
BRK	31	0	5
TAP	31	96	6
STR	31	144	6
SXR	31	144	6	96	96	3
TAP	31	192	6
BRK	32	0	0
TAP	32	0	1
TAP	32	48	1
BRK	32	96	0
STR	32	96	1
SXL	32	96	1	96	144	4
TAP	32	144	1
TAP	33	0	6
BRK	33	0	7
TAP	33	48	6
TAP	33	96	6
BRK	33	96	7
TAP	33	192	5
TAP	33	240	4
TAP	33	288	2
TAP	33	336	3
TAP	34	0	6
TAP	34	48	4
TAP	34	96	1
TAP	34	144	3
TAP	34	192	6
TAP	34	240	7
TAP	34	288	1
TAP	34	336	0
TAP	35	0	5
TAP	35	48	7
TAP	35	96	2
STR	35	144	0
SCL	35	144	0	96	432	1
STR	37	48	0
SI_	37	48	0	96	48	2
STR	37	48	7
SI_	37	48	7	96	48	5
STR	37	288	0
SI_	37	288	0	96	48	2
STR	37	288	7
SI_	37	288	7	96	48	5
TAP	38	192	6
TAP	38	192	7
STR	38	240	6
SCL	38	240	6	96	96	3
STR	38	240	7
SCR	38	240	7	96	96	2
TAP	38	288	6
TAP	38	288	7
TAP	39	96	0
TAP	39	96	1
STR	39	144	0
SCL	39	144	0	96	96	5
STR	39	144	1
SCR	39	144	1	96	96	4
TAP	39	192	0
TAP	39	192	1
STR	40	96	0
SI_	40	96	0	96	48	2
STR	40	96	7
SI_	40	96	7	96	48	5
TAP	41	0	0
TAP	41	0	7
TAP	41	48	0
TAP	41	48	7
STR	41	96	0
SCR	41	96	0	96	48	3
STR	41	96	7
SCL	41	96	7	96	48	4
TAP	41	192	0
TAP	41	192	7
BRK	42	192	3
BRK	42	192	4
BRK	43	48	0
BRK	43	96	0
BRK	43	144	0
TAP	43	192	4
STR	43	192	6
SXL	43	192	6	96	48	7
TAP	43	288	2
TAP	43	336	2
STR	44	0	1
SXR	44	0	1	96	48	0
TAP	44	0	3
TAP	44	96	5
TAP	44	144	5
TAP	44	192	2
STR	44	192	5
SXR	44	192	5	96	48	4
TAP	44	288	0
TAP	44	336	0
STR	45	0	2
SXL	45	0	2	96	48	3
TAP	45	0	5
TAP	45	96	7
TAP	45	144	7
STR	45	192	6
SI_	45	192	6	96	48	2
TAP	45	240	6
STR	45	288	1
SI_	45	288	1	96	48	5
TAP	45	336	1
STR	46	0	4
SXL	46	0	4	96	96	7
TAP	46	48	4
TAP	46	240	1
TAP	46	288	2
TAP	46	336	3
STR	47	0	4
SCL	47	0	4	96	48	1
TAP	47	48	5
TAP	47	96	6
STR	47	192	5
SCL	47	192	5	96	48	2
TAP	47	240	5
STR	47	288	1
SUR	47	288	1	96	48	5
TAP	47	336	1
STR	48	0	6
SXL	48	0	6	96	48	0
TAP	48	48	6
STR	48	96	2
SXL	48	96	2	96	144	7
TAP	48	144	2
TAP	49	48	5
TAP	49	96	4
TAP	49	144	3
TAP	49	192	0
TAP	49	192	1
TAP	49	240	2
TAP	49	240	7
TAP	49	288	3
TAP	49	288	6
TAP	49	336	0
TAP	49	336	7
TAP	50	0	1
TAP	50	0	6
TAP	50	48	2
TAP	50	48	5
TAP	50	96	6
TAP	50	96	7
TAP	50	144	0
TAP	50	144	5
TAP	50	192	1
TAP	50	192	4
TAP	50	240	0
TAP	50	240	7
TAP	50	288	1
TAP	50	288	6
TAP	50	336	2
TAP	50	336	5
STR	51	0	3
SI_	51	0	3	96	48	0
STR	51	0	4
SI_	51	0	4	96	48	7
BRK	51	96	3
BRK	51	96	4
STR	51	192	5
SI_	51	192	5	96	48	1
TAP	51	288	2
STR	51	336	2
SI_	51	336	2	96	48	6
TAP	52	48	7
TAP	52	96	7
TAP	52	144	5
STR	52	192	2
SI_	52	192	2	96	48	6
TAP	52	288	5
STR	52	336	5
SI_	52	336	5	96	48	1
TAP	53	48	0
TAP	53	96	0
TAP	53	144	2
STR	53	192	4
SI_	53	192	4	96	48	0
TAP	53	288	3
STR	53	336	3
SI_	53	336	3	96	48	7
TAP	54	48	4
TAP	54	96	4
TAP	54	144	4
BRK	54	192	6
BRK	54	240	7
BRK	54	288	0
BRK	54	336	1
STR	55	0	0
SXL	55	0	0	96	48	1
STR	55	0	7
SXR	55	0	7	96	48	6
HLD	55	192	5	72
TAP	55	264	4
TAP	55	288	6
TAP	55	336	6
HLD	56	0	2	72
TAP	56	72	3
TAP	56	96	1
TAP	56	144	1
HLD	56	192	5	72
TAP	56	264	4
STR	56	288	6
SXR	56	288	6	96	144	3
TAP	57	0	0
TAP	57	48	0
TAP	57	96	1
TAP	57	192	6
TAP	57	240	6
TAP	57	240	7
TAP	57	288	1
TAP	57	336	0
TAP	57	336	1
TAP	58	0	2
TAP	58	48	3
TAP	58	96	4
HLD	58	144	5	96
TAP	58	240	4
TAP	58	288	2
TAP	58	336	3
TAP	59	0	5
TAP	59	48	4
TAP	59	96	3
TAP	59	144	4
HLD	59	192	0	144
HLD	59	192	7	144
TAP	60	0	3
TAP	60	0	4
TAP	60	96	3
TAP	60	96	4
HLD	60	192	0	144
HLD	60	192	1	144
TAP	61	0	3
TAP	61	0	4
TAP	61	96	3
TAP	61	96	4
HLD	61	192	6	144
HLD	61	192	7	144
TAP	62	0	3
TAP	62	0	4
TAP	62	96	3
TAP	62	96	4
TAP	62	192	0
TAP	62	192	1
TAP	62	288	0
TAP	62	288	1
TAP	63	0	4
TAP	63	0	5
BRK	63	96	2
BRK	63	96	7
HLD	63	192	6	144
HLD	63	192	7	144
TAP	64	0	1
TAP	64	0	6
TAP	64	96	1
TAP	64	96	6
HLD	64	192	0	144
HLD	64	192	1	144
TAP	65	0	1
TAP	65	0	6
TAP	65	96	1
TAP	65	96	6
HLD	65	192	6	144
HLD	65	192	7	144
TAP	66	0	1
TAP	66	0	6
TAP	66	96	1
TAP	66	96	6
TAP	66	192	3
TAP	66	192	4
TAP	66	288	3
TAP	66	288	4
BST	67	0	1
SI_	67	0	1	96	48	4
BST	67	0	6
SI_	67	0	6	96	48	3
TAP	67	192	6
TAP	67	288	5
TAP	68	0	1
STR	68	96	2
SCL	68	96	2	96	288	3
STR	69	192	1
SCR	69	192	1	96	48	4
TAP	69	264	0
TAP	69	288	1
TAP	69	336	5
STR	70	0	6
SCL	70	0	6	96	48	3
TAP	70	72	7
TAP	70	96	6
TAP	70	144	2
STR	70	192	1
SCR	70	192	1	96	48	4
TAP	70	264	0
TAP	70	288	1
TAP	70	336	5
STR	71	0	6
SCR	71	0	6	96	48	1
STR	71	192	2
SI_	71	192	2	96	48	6
TAP	71	240	2
STR	71	288	5
SI_	71	288	5	96	48	1
TAP	71	336	5
STR	72	0	3
SXR	72	0	3	96	96	0
TAP	72	48	3
TAP	72	240	5
TAP	72	288	6
TAP	72	336	7
STR	73	0	0
SCR	73	0	0	96	48	3
TAP	73	48	0
STR	73	192	2
SCR	73	192	2	96	48	5
TAP	73	240	2
STR	73	288	6
SUL	73	288	6	96	48	2
TAP	73	336	6
STR	74	0	1
SXR	74	0	1	96	48	7
TAP	74	48	1
STR	74	96	5
SXR	74	96	5	96	144	0
TAP	74	144	5
TAP	75	48	2
TAP	75	96	3
TAP	75	144	4
TAP	75	192	6
TAP	75	192	7
TAP	75	240	0
TAP	75	240	5
TAP	75	288	1
TAP	75	288	4
TAP	75	336	0
TAP	75	336	7
TAP	76	0	1
TAP	76	0	6
TAP	76	48	2
TAP	76	48	5
TAP	76	96	0
TAP	76	96	1
TAP	76	144	2
TAP	76	144	7
TAP	76	192	3
TAP	76	192	6
TAP	76	240	0
TAP	76	240	7
TAP	76	288	1
TAP	76	288	6
TAP	76	336	2
TAP	76	336	5
STR	77	0	3
SI_	77	0	3	96	48	0
STR	77	0	4
SI_	77	0	4	96	48	7
BRK	77	96	3
BRK	77	96	4
STR	77	192	5
SUR	77	192	5	96	48	1
TAP	77	288	2
STR	77	336	2
SLL	77	336	2	96	96	4
TAP	78	48	6
TAP	78	96	6
TAP	78	144	5
STR	78	192	2
SUL	78	192	2	96	48	6
TAP	78	288	5
STR	78	336	5
SLR	78	336	5	96	96	3
TAP	79	48	1
TAP	79	96	1
TAP	79	144	2
STR	79	192	4
SI_	79	192	4	96	48	0
TAP	79	288	3
STR	79	336	3
SI_	79	336	3	96	48	7
TAP	80	48	4
TAP	80	96	4
TAP	80	144	5
BRK	80	192	6
BRK	80	240	7
BRK	80	288	0
BRK	80	336	1
STR	81	0	0
SXL	81	0	0	96	48	1
STR	81	0	7
SXR	81	0	7	96	48	6
STR	81	192	1
SCR	81	192	1	96	48	4
TAP	81	264	0
TAP	81	288	1
TAP	81	336	5
STR	82	0	6
SCL	82	0	6	96	48	3
TAP	82	72	7
TAP	82	96	6
TAP	82	144	2
STR	82	192	1
SCR	82	192	1	96	48	4
TAP	82	264	0
TAP	82	288	1
TAP	82	336	5
TAP	83	0	6
TAP	83	48	6
TAP	83	96	7
TAP	83	144	7
HLD	83	192	2	48
TAP	83	240	3
HLD	83	288	5	48
TAP	83	336	4
TAP	84	0	1
TAP	84	48	3
TAP	84	96	4
HLD	84	144	6	96
TAP	84	240	4
TAP	84	288	2
TAP	84	336	1
TAP	84	336	3
TAP	85	0	5
TAP	85	48	4
TAP	85	96	2
TAP	85	144	3
BRK	85	192	2
BRK	85	192	5
TAP	85	288	0
TAP	85	288	7
TAP	86	0	2
TAP	86	0	6
TAP	86	48	0
TAP	86	48	1
TAP	86	96	1
TAP	86	96	7
STR	86	192	3
SCL	86	192	3	96	48	0
STR	86	192	4
SCR	86	192	4	96	48	7
BRK	87	0	2
BRK	87	0	5
TAP	87	48	7
TAP	87	96	7
TAP	87	144	7
TAP	87	192	0
STR	87	192	5
SCR	87	192	5	96	48	0
STR	87	288	2
SCL	87	288	2	96	48	7
STR	88	0	4
SUR	88	0	4	96	48	1
STR	88	96	3
SUL	88	96	3	96	48	6
STR	88	192	5
SCR	88	192	5	96	48	0
STR	88	288	2
SCL	88	288	2	96	48	7
STR	89	0	4
SUR	89	0	4	96	48	1
TAP	89	96	3
STR	89	192	2
SI_	89	192	2	96	48	7
STR	89	192	3
SI_	89	192	3	96	48	6
TAP	89	288	2
TAP	89	288	3
TAP	90	0	0
TAP	90	0	5
TAP	90	48	1
TAP	90	48	6
TAP	90	96	2
TAP	90	96	7
TAP	90	192	4
TAP	90	192	5
STR	90	288	0
SXR	90	288	0	96	96	5
STR	90	288	1
SXL	90	288	1	96	96	4
STR	91	192	1
SCR	91	192	1	96	48	4
TAP	91	192	7
STR	91	288	6
SCL	91	288	6	96	48	3
STR	92	0	0
SUR	92	0	0	96	48	5
STR	92	96	7
SUL	92	96	7	96	48	2
STR	92	192	1
SCR	92	192	1	96	48	4
STR	92	288	6
SCL	92	288	6	96	48	3
STR	93	0	0
SUR	93	0	0	96	48	5
TAP	93	96	7
STR	93	192	6
SI_	93	192	6	96	48	3
STR	93	192	7
SI_	93	192	7	96	48	2
TAP	93	288	6
TAP	93	288	7
TAP	94	0	1
TAP	94	0	4
STR	94	96	2
SLL	94	96	2	96	48	6
STR	94	96	3
SV_	94	96	3	96	48	6
STR	94	288	4
SV_	94	288	4	96	48	1
STR	94	288	5
SLR	94	288	5	96	48	1
BRK	95	96	2
BRK	95	96	5
STR	95	192	2
SCL	95	192	2	96	48	7
TAP	95	192	7
STR	95	288	5
SCR	95	288	5	96	48	0
STR	96	0	3
SUL	96	0	3	96	48	6
STR	96	96	4
SUR	96	96	4	96	48	1
STR	96	192	2
SCL	96	192	2	96	48	7
STR	96	288	5
SCR	96	288	5	96	48	0
STR	97	0	3
SUL	97	0	3	96	48	6
TAP	97	96	4
STR	97	192	4
SI_	97	192	4	96	48	1
STR	97	192	5
SI_	97	192	5	96	48	0
TAP	97	288	4
TAP	97	288	5
TAP	98	0	2
TAP	98	0	7
TAP	98	48	1
TAP	98	48	6
TAP	98	96	0
TAP	98	96	5
TAP	98	192	0
TAP	98	192	7
STR	98	288	3
SXR	98	288	3	96	96	0
STR	98	288	4
SXL	98	288	4	96	96	7
STR	99	192	1
SCR	99	192	1	96	48	4
TAP	99	192	7
STR	99	288	6
SCL	99	288	6	96	48	3
STR	100	0	0
SUR	100	0	0	96	48	5
STR	100	96	7
SUL	100	96	7	96	48	2
STR	100	192	1
SCR	100	192	1	96	48	4
STR	100	288	6
SCL	100	288	6	96	48	3
STR	101	0	0
SUR	101	0	0	96	48	5
TAP	101	96	7
STR	101	192	6
SI_	101	192	6	96	48	3
STR	101	192	7
SI_	101	192	7	96	48	2
TAP	101	288	6
TAP	101	288	7
STR	102	0	1
SXR	102	0	1	96	96	6
TAP	102	240	5
TAP	102	288	2
TAP	102	336	2
HLD	103	0	3	48
HLD	103	0	4	48
TAP	103	96	1
TAP	103	96	6

T_REC_TAP	466
T_REC_BRK	35
T_REC_XTP	0
T_REC_HLD	26
T_REC_XHO	0
T_REC_STR	140
T_REC_BST	3
T_REC_XST	0
T_REC_TTP	0
T_REC_THO	0
T_REC_SLD	144
T_REC_ALL	814
T_NUM_TAP	606
T_NUM_BRK	38
T_NUM_HLD	26
T_NUM_SLD	144
T_NUM_ALL	814
T_JUDGE_TAP	644
T_JUDGE_HLD	55
T_JUDGE_SLD	144
T_JUDGE_ALL	843
TTM_EACHPAIRS	182
TTM_SCR_TAP	303000
TTM_SCR_BRK	98800
TTM_SCR_HLD	26000
TTM_SCR_SLD	216000
TTM_SCR_ALL	643800
TTM_SCR_S	620800
TTM_SCR_SS	640000
TTM_RAT_ACV	10059

