VERSION	0.00.00	1.03.00
FES_MODE	0
BPM_DEF	180.000	180.000	180.000	180.000
MET_DEF	4	4
RESOLUTION	384
CLK_DEF	384
COMPATIBLE_CODE	MA2

BPM	0	0	180.000
MET	0	0	4	4
MET	9	0	4	6
MET	10	192	4	4

TAP	1	0	6
TAP	1	192	5
TAP	2	0	4
TAP	2	192	3
TAP	3	0	1
TAP	3	192	2
TAP	4	0	3
TAP	4	192	4
TAP	5	0	2
TAP	5	192	1
TAP	6	0	0
TAP	6	192	7
TAP	7	0	5
TAP	7	192	6
TAP	8	0	7
STR	8	192	0
SCR	8	192	0	96	576	7
TAP	10	192	0
TAP	10	288	0
TAP	11	0	0
TAP	11	48	0
BRK	11	96	1
BRK	11	96	7
TAP	11	192	2
TAP	11	288	1
TAP	11	288	3
TAP	12	0	4
TAP	12	96	3
TAP	12	96	5
TAP	12	192	6
TAP	12	288	5
TAP	12	288	7
TAP	13	0	3
TAP	13	0	4
TAP	13	96	3
TAP	13	96	4
TAP	13	192	5
TAP	13	288	4
TAP	13	288	6
TAP	14	0	3
TAP	14	96	2
TAP	14	96	4
TAP	14	192	1
TAP	14	288	0
TAP	14	288	2
TAP	15	0	7
TAP	15	48	7
TAP	15	96	0
TAP	15	96	6
TAP	15	192	5
TAP	15	288	4
TAP	15	288	6
TAP	16	0	3
TAP	16	96	2
TAP	16	96	4
TAP	16	192	1
TAP	16	288	0
TAP	16	288	2
TAP	17	0	3
TAP	17	0	4
TAP	17	96	3
TAP	17	96	4
TAP	17	192	2
TAP	17	288	1
TAP	17	288	3
TAP	18	0	4
TAP	18	96	3
TAP	18	96	5
HLD	18	192	6	192
TAP	19	0	7
TAP	19	96	0
TAP	19	96	1
HLD	19	192	2	96
TAP	19	288	3
HLD	20	0	5	96
TAP	20	96	4
HLD	20	192	3	96
TAP	20	288	4
TAP	21	0	2
TAP	21	0	5
TAP	21	96	2
TAP	21	96	5
HLD	21	192	6	96
HLD	21	288	5	96
HLD	22	0	4	96
HLD	22	96	3	96
HLD	22	192	2	96
HLD	22	288	1	96
TAP	23	0	0
TAP	23	96	6
TAP	23	96	7
HLD	23	192	0	96
TAP	23	288	7
TAP	24	0	1
TAP	24	0	6
TAP	24	96	1
TAP	24	96	6
TAP	24	192	2
TAP	24	240	3
TAP	24	288	2
TAP	25	0	5
TAP	25	48	4
TAP	25	96	5
HLD	25	192	2	96
HLD	25	288	3	96
HLD	26	0	4	96
HLD	26	96	5	96
TAP	26	192	4
TAP	26	288	2
TAP	26	288	3
TAP	27	0	4
HLD	27	48	4	96
TAP	27	144	3
HLD	27	192	3	96
TAP	27	288	4
TAP	28	0	1
TAP	28	0	6
TAP	28	96	1
TAP	28	96	6
TAP	28	192	0
TAP	28	288	7
TAP	29	0	6
TAP	29	96	0
TAP	29	96	5
TAP	29	192	7
TAP	29	288	0
TAP	30	0	1
TAP	30	96	2
TAP	30	96	7
TAP	30	192	1
TAP	30	288	0
TAP	30	288	2
TAP	31	0	6
TAP	31	96	5
TAP	31	96	7
STR	31	192	0
SI_	31	192	0	96	48	4
TAP	32	0	5
TAP	32	96	0
TAP	32	96	6
STR	32	192	7
SI_	32	192	7	96	48	3
TAP	33	0	2
TAP	33	96	1
TAP	33	96	7
TAP	33	192	0
TAP	33	240	1
TAP	33	288	2
TAP	34	0	7
TAP	34	48	6
TAP	34	96	5
TAP	34	192	2
TAP	34	240	2
TAP	34	288	4
TAP	34	336	4
TAP	35	0	3
TAP	35	48	3
STR	35	96	5
SXL	35	96	5	96	288	1
STR	37	192	0
SV_	37	192	0	96	192	2
STR	37	192	4
SV_	37	192	4	96	192	6
STR	38	192	3
SV_	38	192	3	96	192	1
STR	38	192	7
SV_	38	192	7	96	192	5
STR	39	192	2
SLL	39	192	2	96	192	4
STR	39	192	6
SLR	39	192	6	96	192	4
STR	40	192	1
SLL	40	192	1	96	192	3
STR	40	192	5
SLR	40	192	5	96	192	3
STR	41	192	3
SI_	41	192	3	96	72	0
STR	42	0	7
SI_	42	0	7	96	72	4
TAP	42	192	3
BRK	43	48	7
BRK	43	96	7
BRK	43	144	7
HLD	43	192	1	96
TAP	43	288	0
HLD	44	0	6	96
TAP	44	96	7
HLD	44	192	0	96
TAP	44	288	7
TAP	45	0	3
TAP	45	0	4
TAP	45	96	1
TAP	45	96	6
TAP	45	192	2
TAP	45	240	2
TAP	45	288	4
TAP	45	336	4
TAP	46	0	3
TAP	46	48	3
TAP	46	96	5
HLD	46	144	5	96
TAP	46	240	4
TAP	46	336	0
STR	47	0	0
SI_	47	0	0	96	72	4
HLD	47	192	5	96
HLD	47	288	4	96
HLD	48	0	3	96
HLD	48	96	2	96
TAP	48	192	5
TAP	48	240	5
TAP	48	336	1
TAP	48	336	6
TAP	49	48	0
TAP	49	48	7
TAP	49	96	0
TAP	49	96	7
TAP	49	192	6
TAP	49	240	5
TAP	49	288	4
TAP	49	336	1
TAP	50	0	2
TAP	50	48	3
TAP	50	96	7
TAP	50	144	6
TAP	50	192	5
TAP	50	240	0
TAP	50	288	1
TAP	50	336	2
BST	51	0	7
SI_	51	0	7	96	72	3
HLD	51	192	2	96
TAP	51	288	3
HLD	51	336	2	96
TAP	52	48	3
TAP	52	96	1
TAP	52	144	1
HLD	52	192	5	96
TAP	52	288	4
HLD	52	336	5	96
TAP	53	48	4
TAP	53	96	6
TAP	53	144	6
HLD	53	192	0	96
TAP	53	288	7
HLD	53	336	0	96
TAP	54	48	7
TAP	54	96	1
TAP	54	96	6
TAP	54	144	1
TAP	54	144	6
TAP	54	192	2
TAP	54	240	4
TAP	54	288	3
TAP	54	336	5
TAP	55	0	2
TAP	55	48	4
TAP	55	96	3
STR	55	192	1
SI_	55	192	1	96	48	4
TAP	55	288	5
STR	56	0	6
SI_	56	0	6	96	48	3
TAP	56	96	2
STR	56	192	0
SI_	56	192	0	96	48	4
TAP	56	288	5
STR	57	0	7
SI_	57	0	7	96	48	3
TAP	57	96	2
TAP	57	192	0
TAP	57	192	1
TAP	57	288	6
TAP	57	288	7
TAP	58	0	0
TAP	58	48	7
TAP	58	96	0
TAP	58	144	7
TAP	58	192	0
TAP	58	288	1
TAP	58	288	6
TAP	59	0	2
TAP	59	0	5
TAP	59	96	3
TAP	59	96	4
HLD	59	192	2	192
HLD	60	0	3	192
TAP	60	192	2
TAP	60	288	0
TAP	60	288	7
TAP	61	0	4
TAP	61	0	5
HLD	61	192	4	192
HLD	62	0	5	192
TAP	62	192	4
TAP	62	288	0
TAP	62	288	7
TAP	63	0	2
TAP	63	0	3
HLD	63	192	1	192
HLD	64	0	0	192
TAP	64	192	1
TAP	64	288	3
TAP	64	288	4
TAP	65	0	6
TAP	65	0	7
HLD	65	192	7	192
HLD	66	0	6	192
TAP	66	192	7
TAP	66	288	3
TAP	66	288	4
TAP	67	0	0
STR	67	0	1
SI_	67	0	1	96	48	5
HLD	69	192	6	96
TAP	69	288	7
TAP	69	336	0
HLD	70	0	1	96
TAP	70	96	0
TAP	70	144	7
HLD	70	192	6	96
TAP	70	288	7
TAP	70	336	0
TAP	71	0	1
TAP	71	96	3
TAP	71	96	4
TAP	71	192	5
TAP	71	240	5
TAP	71	288	3
TAP	71	336	3
TAP	72	0	4
TAP	72	48	4
TAP	72	96	2
HLD	72	144	2	96
TAP	72	240	3
TAP	72	336	7
STR	73	0	7
SI_	73	0	7	96	72	3
TAP	73	192	2
TAP	73	240	2
TAP	73	288	4
TAP	73	336	4
TAP	74	0	3
TAP	74	48	3
TAP	74	96	5
TAP	74	144	5
TAP	74	192	3
TAP	74	240	4
TAP	74	336	1
TAP	74	336	6
TAP	75	48	0
TAP	75	48	7
TAP	75	96	0
TAP	75	96	7
TAP	75	192	2
TAP	75	240	3
TAP	75	288	2
TAP	75	336	5
TAP	76	0	4
TAP	76	48	5
TAP	76	96	1
TAP	76	144	0
TAP	76	192	1
TAP	76	240	6
TAP	76	288	7
TAP	76	336	6
BST	77	0	0
SI_	77	0	0	96	72	4
HLD	77	192	5	96
TAP	77	288	4
HLD	77	336	6	96
TAP	78	48	7
TAP	78	96	6
TAP	78	144	6
HLD	78	192	2	96
TAP	78	288	3
HLD	78	336	1	96
TAP	79	48	0
TAP	79	96	1
TAP	79	144	1
HLD	79	192	7	96
TAP	79	288	0
HLD	79	336	7	96
TAP	80	48	0
TAP	80	96	1
TAP	80	96	6
TAP	80	144	1
TAP	80	144	6
TAP	80	192	0
TAP	80	240	7
TAP	80	288	1
TAP	80	336	6
TAP	81	0	0
TAP	81	48	7
BRK	81	96	0
STR	81	192	6
SI_	81	192	6	96	48	3
TAP	81	288	2
STR	82	0	1
SI_	82	0	1	96	48	4
TAP	82	96	5
STR	82	192	6
SI_	82	192	6	96	48	2
TAP	82	288	7
STR	83	0	1
SI_	83	0	1	96	48	5
TAP	83	96	0
TAP	83	192	6
TAP	83	192	7
TAP	83	288	0
TAP	83	288	1
TAP	84	0	7
TAP	84	48	0
TAP	84	96	7
TAP	84	144	0
TAP	84	192	7
TAP	84	288	1
TAP	84	288	6
TAP	85	0	2
TAP	85	0	5
TAP	85	96	3
TAP	85	96	4
TAP	85	192	2
TAP	85	240	2
HLD	85	288	3	96
TAP	86	0	5
TAP	86	48	5
HLD	86	96	4	96
TAP	86	192	3
STR	86	288	2
SLL	86	288	2	96	144	3
STR	86	288	5
SLR	86	288	5	96	144	4
TAP	87	192	5
TAP	87	288	4
TAP	87	288	6
TAP	88	0	3
TAP	88	96	2
TAP	88	96	4
TAP	88	192	1
TAP	88	288	0
TAP	88	288	2
TAP	89	0	3
TAP	89	48	4
TAP	89	96	3
TAP	89	144	4
TAP	89	192	2
TAP	89	288	1
TAP	89	288	3
TAP	90	0	4
TAP	90	96	3
TAP	90	96	5
TAP	90	192	6
TAP	90	288	5
TAP	90	288	7
TAP	91	0	0
TAP	91	48	0
TAP	91	96	1
TAP	91	96	7
TAP	91	192	2
TAP	91	288	1
TAP	91	288	3
TAP	92	0	4
TAP	92	96	3
TAP	92	96	5
TAP	92	192	6
TAP	92	288	5
TAP	92	288	7
TAP	93	0	4
TAP	93	48	3
TAP	93	96	4
TAP	93	144	3
TAP	93	192	5
TAP	93	288	4
TAP	93	288	6
TAP	94	0	3
TAP	94	96	2
TAP	94	96	4
TAP	94	192	0
TAP	94	192	1
TAP	94	288	3
TAP	94	288	5
TAP	95	0	6
TAP	95	0	7
TAP	95	96	2
TAP	95	96	4
TAP	95	192	5
TAP	95	288	4
TAP	95	288	6
TAP	96	0	3
TAP	96	96	2
TAP	96	96	4
TAP	96	192	1
TAP	96	288	0
TAP	96	288	2
TAP	97	0	3
TAP	97	48	4
TAP	97	96	3
TAP	97	144	4
TAP	97	192	2
TAP	97	288	1
TAP	97	288	3
TAP	98	0	4
TAP	98	96	3
TAP	98	96	5
TAP	98	192	6
TAP	98	288	5
TAP	98	288	7
TAP	99	0	0
TAP	99	48	0
TAP	99	96	1
TAP	99	96	7
TAP	99	192	2
TAP	99	288	1
TAP	99	288	3
TAP	100	0	4
TAP	100	96	3
TAP	100	96	5
TAP	100	192	6
TAP	100	288	5
TAP	100	288	7
TAP	101	0	4
TAP	101	48	3
TAP	101	96	4
TAP	101	144	3
TAP	101	192	4
TAP	101	288	2
TAP	101	288	5
TAP	102	0	1
TAP	102	0	6
STR	102	96	0
SXL	102	96	0	96	240	3
STR	102	96	7
SXR	102	96	7	96	240	4
TAP	103	96	1
TAP	103	96	6

T_REC_TAP	417
T_REC_BRK	6
T_REC_XTP	0
T_REC_HLD	51
T_REC_XHO	0
T_REC_STR	29
T_REC_BST	2
T_REC_XST	0
T_REC_TTP	0
T_REC_THO	0
T_REC_SLD	31
T_REC_ALL	536
T_NUM_TAP	446
T_NUM_BRK	8
T_NUM_HLD	51
T_NUM_SLD	31
T_NUM_ALL	536
T_JUDGE_TAP	454
T_JUDGE_HLD	120
T_JUDGE_SLD	31
T_JUDGE_ALL	605
TTM_EACHPAIRS	98
TTM_SCR_TAP	223000
TTM_SCR_BRK	20800
TTM_SCR_HLD	51000
TTM_SCR_SLD	46500
TTM_SCR_ALL	341300
TTM_SCR_S	330300
TTM_SCR_SS	340500
TTM_RAT_ACV	10023

